<?xml version="1.0" standalone="no"?>
<!DOCTYPE svg PUBLIC "-//W3C//DTD SVG 1.1//EN" "http://www.w3.org/Graphics/SVG/1.1/DTD/svg11.dtd" >
<svg xmlns="http://www.w3.org/2000/svg" xmlns:xlink="http://www.w3.org/1999/xlink" version="1.1">
<metadata></metadata>
<defs>
<font id="vip-zalregular" horiz-adv-x="1139" >
<font-face units-per-em="2048" ascent="1638" descent="-410" />
<missing-glyph horiz-adv-x="569" />
<glyph horiz-adv-x="0" />
<glyph unicode="&#xd;" horiz-adv-x="569" />
<glyph unicode=" "  horiz-adv-x="569" />
<glyph unicode="&#x09;" horiz-adv-x="569" />
<glyph unicode="&#xa0;" horiz-adv-x="569" />
<glyph unicode="!" horiz-adv-x="323" d="M-6 1536h332l-44 -1094l-260 -4zM102 -58q-50 0 -84 39t-34 91q0 70 71 143t143 73q54 0 91 -41t37 -95q0 -68 -73 -139t-151 -71z" />
<glyph unicode="&#x22;" horiz-adv-x="1532" d="M319 880q6 37 37 59t68 16q38 -6 60 -38l189 -266l32 192q23 133 74 245.5t130.5 200.5t185.5 139t239 60t291 -36q26 -8 38 -26t9.5 -38t-13 -38t-31.5 -27t-45 -3q-110 26 -206 23t-176.5 -39t-143 -101.5t-106 -165t-65.5 -229.5l-32 -187l266 189q31 22 68 16 q38 -7 60 -38t16 -68t-38 -60l-446 -317q-31 -23 -69 -16q-37 6 -59 37l-318 447q-22 31 -15 69zM1530 42q0 -35 -24.5 -59.5t-58.5 -24.5h-1365q-34 0 -58 25q-25 24 -25 59v35q0 35 24.5 59.5t58.5 24.5h1365q34 0 59 -25q24 -25 24 -59v-35z" />
<glyph unicode="#" horiz-adv-x="1458" d="M548 679l-549 564l190 161l535 -549l540 549l190 -161l-554 -564l554 -560l-185 -165l-545 549l-539 -549l-186 165z" />
<glyph unicode="$" d="M510 -211v180q-135 17 -219.5 60.5t-146 140.5t-71.5 237l181 34q21 -145 74 -213q76 -96 182 -107v573q-111 21 -227 86q-86 48 -132.5 133t-46.5 193q0 192 136 311q91 80 270 98v86h106v-86q157 -15 249 -92q118 -98 142 -269l-186 -28q-16 106 -66.5 162.5 t-138.5 74.5v-519q136 -34 180 -53q84 -37 137 -90t81.5 -126t28.5 -158q0 -187 -119 -312t-308 -134v-182h-106zM510 1365q-105 -16 -165.5 -84t-60.5 -161q0 -92 51.5 -154t174.5 -99v498zM616 121q105 13 173.5 91t68.5 193q0 98 -48.5 157.5t-193.5 106.5v-548z" />
<glyph unicode="%" horiz-adv-x="1821" d="M119 1114q0 157 79 267t229 110q138 0 228.5 -98.5t90.5 -289.5q0 -186 -91.5 -286.5t-225.5 -100.5q-133 0 -221.5 99t-88.5 299zM432 1367q-67 0 -111.5 -58t-44.5 -213q0 -141 45 -198.5t111 -57.5q68 0 112.5 58t44.5 212q0 142 -45 199.5t-112 57.5zM433 -54 l802 1545h146l-799 -1545h-149zM1067 344q0 158 79 267.5t230 109.5q138 0 228.5 -98.5t90.5 -289.5q0 -186 -91.5 -286.5t-226.5 -100.5q-133 0 -221.5 99.5t-88.5 298.5zM1381 597q-68 0 -112.5 -58t-44.5 -213q0 -140 45 -198t111 -58q69 0 113.5 58t44.5 212 q0 142 -45 199.5t-112 57.5z" />
<glyph unicode="&#x26;" horiz-adv-x="1366" d="M973 173q-89 -99 -194 -148.5t-227 -49.5q-225 0 -357 152q-107 124 -107 277q0 136 87.5 245.5t261.5 192.5q-99 114 -132 185t-33 137q0 132 103.5 229.5t260.5 97.5q150 0 245.5 -92t95.5 -221q0 -209 -277 -357l263 -335q45 88 70 204l187 -40q-48 -192 -130 -316 q101 -134 229 -225l-121 -143q-109 70 -225 207zM607 937q117 69 151.5 121t34.5 115q0 75 -47.5 122.5t-118.5 47.5q-73 0 -121.5 -47t-48.5 -115q0 -34 17.5 -71.5t52.5 -79.5zM860 315l-330 409q-146 -87 -197 -161.5t-51 -147.5q0 -89 71 -185t201 -96q81 0 167.5 50.5 t138.5 130.5z" />
<glyph unicode="(" horiz-adv-x="1772" d="M1605 922q-12 32 -16 43q-11 28 1 55.5t40 38.5t55.5 -0.5t38.5 -39.5q8 -20 19 -52q9 -28 -4.5 -55t-41.5 -36q-35 -12 -65 9q-19 14 -27 37zM1788 719q1 -24 0 -55q-1 -30 -22.5 -50.5t-51.5 -20.5q-22 1 -40 14q-32 22 -31 60q1 26 0 46q-1 31 19 53t50 23t52.5 -19.5 t23.5 -50.5zM1699.5 506q28.5 -9 42.5 -35.5t6 -54.5q-9 -28 -18 -52q-6 -16 -13 -26t-18 -17.5t-26.5 -7t-36.5 8.5q-8 3 -16 8q-17 10 -26 20t-9.5 22t1.5 20t8 23q6 14 15 44q9 28 35.5 42t55 5zM753 -60q49 -9 38 -79q-6 -33 -20.5 -51t-42.5 -13q-196 36 -360 151 q-62 43 -115 96l-2 2q-99 98 -163.5 221.5t-88.5 263.5q-3 18 -8 55q-1 2 -1 3q-3 27 -4 55v2q-6 139 30 273.5t113 253.5l2 3q12 19 19 28q2 3 6 8.5t6 8.5q2 2 3 4q93 124 220 209t276 123l1 0.5t2 0.5v0q31 8 69 14q180 32 358 -12.5t335 -170.5l20 126q11 17 23.5 15 t18.5 -22q80 -241 104 -322q7 -24 -8 -40.5t-51 -5.5q-74 23 -166 50t-133 41q-44 14 -9 43l119 31q-115 74 -235.5 109t-233.5 31.5t-218.5 -38.5t-200.5 -100q0 -1 -1 -1.5l-1 -0.5q-109 -76 -186 -185q-89 -126 -120.5 -275t-7 -290t104.5 -271t206 -218q34 -24 72 -45v0 q19 -10 42 -21l0.5 -0.5t1.5 -0.5q88 -42 186 -59zM1244 19q15 7 32 3t26 -18l31 -46q11 -17 6 -37t-23 -29q-97 -50 -195 -75q-1 0 -2 -0.5l-1 -0.5v0q-32 -8 -69 -14q-55 -10 -112 -13q-19 -1 -32.5 11.5t-14.5 31.5l-3 55q-1 18 11.5 32.5t31.5 14.5q161 8 314 85z M1506 251q10 13 25.5 16t30.5 -5q8 -4 25.5 -14t25.5 -14q17 -10 21 -29t-7 -35q-82 -108 -150 -164q-15 -13 -34 -12.5t-32 15.5q-6 6 -18 19.5t-17 19.5q-12 15 -8 35t19 34q62 57 119 134zM842.5 1326q58.5 0 58.5 -43v-584l329 -169q37 -19 10 -72q-11 -20 -27 -31.5 t-36 -1.5l-393 202v656q0 43 58.5 43z" />
<glyph unicode=")" horiz-adv-x="1772" d="M816 1444q-24 -2 -44 11q-32 19 -35 55q-3 30 16.5 53t49.5 26q27 2 55 3q30 1 51.5 -20t22.5 -50.5t-19.5 -51.5t-50.5 -23q-26 -1 -46 -3zM558 1531q28 11 55.5 -1t38.5 -40t-1.5 -55.5t-40.5 -38.5q-17 -6 -42 -18q-35 -16 -68 4q-19 12 -28 32q-13 27 -2.5 55 t37.5 41q23 10 51 21zM397 1366q20 -23 18 -53t-25 -50q-16 -14 -34 -31q-12 -12 -18.5 -17t-17.5 -9t-23.5 0t-28.5 16q-7 3 -14 11q-21 20 -25.5 39.5t3 33.5t23.5 29q17 18 40 38q23 19 53 17t49 -24zM255 271q55 -82 129 -147q1 0 2 -1q19 -17 35 -30q34 -26 71 -48 q105 -64 223.5 -91.5t234.5 -16t224 54.5t201 121.5t157 183.5q69 114 95 245l0.5 1t0.5 2q16 90 15 178t-26 176t-69 168t-114.5 155t-161.5 136l19 -121q-6 -22 -18 -24t-25 14q-30 33 -91 107t-111 131q-17 20 -17.5 37t10 25.5t25.5 10.5l337 33q20 3 27 -7.5t-4 -28.5 l-107 -69q178 -93 289.5 -239t154.5 -323q9 -38 14 -69v0q0 -1 0.5 -1.5t0.5 -1.5q24 -152 -3.5 -302.5t-104.5 -284.5q0 -1 -1 -2.5l-1 -1.5q-6 -10 -11 -18q-6 -10 -18 -29l-2 -3q-78 -118 -187 -205t-240 -137h-0.5t-1.5 -1q-21 -8 -52 -17q-2 -1 -3 -1q-23 -7 -53 -15 q-139 -33 -277.5 -23.5t-268.5 61.5l-1 1v0q-71 29 -135 67q-171 105 -281 270q-29 42 33 83q59 39 87 -3zM132 753q-10 -171 48 -322q7 -17 -1 -34.5t-26 -23.5l-51 -19q-18 -7 -35 1t-23 25q-20 54 -33 108q-9 37 -14 68q0 1 -0.5 2l-0.5 1q-15 100 -9 209q2 21 18 33.5 t36 8.5l54 -10q17 -3 27.5 -16t9.5 -31zM240 1086q-48 -83 -75 -163q-7 -19 -24.5 -31t-34.5 -6t-50 16q-18 6 -26 23.5t-3 36.5q25 83 92 202q10 18 29 21.5t35 -8.5q9 -7 24.5 -19t21.5 -16q13 -10 16 -26t-5 -30zM842.5 1326q58.5 0 58.5 -43v-584l329 -169 q37 -19 10 -72q-11 -20 -27 -31.5t-36 -1.5l-393 202v656q0 43 58.5 43z" />
<glyph unicode="*" horiz-adv-x="1136" d="M388 679l-389 404l190 161l375 -389l380 389l190 -161l-394 -404l394 -400l-185 -165l-385 389l-379 -389l-186 165z" />
<glyph unicode="+" horiz-adv-x="1438" d="M1034 47v0q-5 -36 -23 -57t-40.5 -25t-43.5 -3t-36 6l-14 5l46 750q-7 5 -18 14.5t-38 38t-46.5 56t-31.5 64.5q-8 22 -8 43q0 12 3 25q8 45 22 112t24 111l10 45q49 49 185 83l102 -148l111 148q109 -13 185 -74q28 -176 46 -268q2 -10 2 -20q0 -81 -106 -202l-25 -28 l27 -750q-5 -2 -14.5 -4.5t-34 -4.5t-43.5 2.5t-36 22.5t-20 49q-4 45 -22.5 177t-34.5 241l-17 110zM988 1556q0 100 75 133q32 14 62 14q43 0 84 -27q59 -39 59 -111q0 -13 -2 -28q-5 -42 -27.5 -73.5t-53.5 -47.5q-30 -15 -65 -15v0q-35 0 -64.5 16t-48.5 52t-19 87z M307 182v310h-307v129h307v308h131v-308h307v-129h-307v-310h-131z" />
<glyph unicode="," horiz-adv-x="2371" d="M322 295v318h-322v221h322v319h214v-319h323v-220h-323v-319h-214zM1799 433q27 -4 70.5 -18.5t97.5 -39t111 -55t110.5 -69t96 -79t68 -88t25.5 -93.5h-1540q0 46 26 93.5t68 88t96 79t110.5 69t110.5 55t98 39t71 18.5q17 3 26.5 30.5t10.5 53.5l2 27 q-105 110 -136 259q-24 0 -43 25.5t-27 59.5q-4 18 -4 37q0 17 3 34q7 37 30 57q0 5 -2 27t-4 43.5t-1.5 54t3.5 62.5t13 64.5t25 63t41.5 56t60.5 46.5t83 30.5t109 11.5t109.5 -11.5t83.5 -30.5t60 -46.5t41.5 -56t25 -63.5t13 -64t4 -62t-1.5 -54.5t-4.5 -44t-2.5 -26.5 q23 -20 30 -57q3 -17 3 -34q0 -19 -4 -37q-8 -34 -27 -59.5t-43 -25.5q-30 -150 -135 -259v-12t2.5 -25.5t6 -32.5t11.5 -26.5t19 -14.5z" />
<glyph unicode="-" horiz-adv-x="2648" d="M1047 267q-38 341 -38 379q0 193 133 237q38 133 85 227q16 41 35.5 72.5t54 64t80 53.5t113.5 34t153 13h341q178 0 278.5 -61.5t157.5 -203.5q41 -95 76 -218q64 -28 98.5 -90t34.5 -147l-19 -360h-1583zM1322 400q52 0 90.5 24.5t55.5 61t17 79.5t-17 80t-55.5 61.5 t-90.5 24.5t-91 -24.5t-57 -61.5t-18.5 -80t16.5 -79.5t56.5 -61t93.5 -24.5zM2307 1016q-29 78 -63 117t-88.5 55.5t-151.5 16.5h-341q-64 0 -113.5 -9.5t-77.5 -21t-51 -35.5t-32 -39t-23 -44l-6 -12q-11 -22 -30.5 -79t-26.5 -73h1061q-9 19 -28 62t-29 62zM2355 693 q-39 0 -67.5 -19t-42.5 -47t-14.5 -61.5t12.5 -62t42 -47t70 -18.5t70.5 18.5t43 47t13.5 62t-13.5 61.5t-43 47t-70.5 19zM1436 68q0 -29 -21.5 -52t-56 -35t-75.5 -17.5t-82.5 0t-76 17.5t-56 35t-21.5 52v104l389 10v-114zM2630 68q0 -34 -27.5 -59t-68.5 -36t-89 -11 t-89 11t-68.5 36t-27.5 59v114l370 -10v-104zM322 295v318h-322v221h322v319h214v-319h323v-220h-323v-319h-214z" />
<glyph unicode="." horiz-adv-x="569" d="M186 0v205h205v-205h-205z" />
<glyph unicode="/" horiz-adv-x="1786" d="M1217 577q-54 0 -84 -40q-33 -44 -33 -108t34 -102q30 -35 82 -35q55 0 85 35q33 38 33 112q0 55 -33 98q-31 40 -84 40zM983 442q-1 77 59 159q59 82 171 82q103 0 171 -79t68 -170q0 -98 -69 -173q-68 -75 -169 -75q-99 0 -165 74q-65 73 -66 182zM563 1088 q-55 0 -83 -41q-34 -46 -34 -108q1 -54 34 -97q31 -40 83 -40q53 0 84 40q33 44 33 108q0 54 -34 98q-30 40 -83 40zM329 953q-1 76 59 158q59 82 171 82q103 0 171 -73q67 -73 67 -175q1 -98 -68 -173q-68 -75 -168 -75q-99 -1 -166 74q-65 71 -66 182zM307 -18 q-19 16 -37 33q-106 104 -179.5 239.5t-87.5 284.5t4 298.5t93 284.5t181.5 239.5t268 166t353.5 61.5q122 0 232 -26l-32 -122q-99 25 -211 25q-341 0 -556 -221q-174 -181 -210 -446q-36 -266 83 -491q73 -137 188 -226zM479 28l715 1385l57 114q159 -61 261.5 -165.5 t174 -239.5t87.5 -284.5t1 -298.5t-85.5 -284.5t-172 -239.5t-258.5 -165.5t-345 -61.5q-202 0 -370 61q-68 26 -127 58zM1304 1359l-712 -1383q4 -2 9 -4q142 -50 313 -50q335 0 540 224q167 183 195 453q28 268 -93 492q-94 174 -252 268z" />
<glyph unicode="0" horiz-adv-x="1772" d="M888 1467q-341 0 -556 -221q-175 -181 -210 -446q-36 -266 83 -491q129 -243 392 -336q142 -50 313 -50q335 0 540 224q167 183 195 452q28 268 -94 493q-130 242 -385 330q-128 45 -278 45zM910 -212q-202 0 -369.5 62t-274 166t-180 239t-87.5 284.5t4 299t93 284.5 t181 239.5t268 166t354 61.5q189 0 348 -61.5t261.5 -166t174 -239.5t87.5 -284.5t1 -299t-85.5 -284.5t-172 -239t-258.5 -166t-345 -62zM1469 829v-112h-218l6 -78h201v-112h-192l13 -179h-145l-23 526l-145 -325l-134 -11l-191 325l-11 -515h-145l11 179h-168v112h175 l5 78h-180v112h187l14 235l135 45l224 -403l190 403l145 -23l20 -257h226z" />
<glyph unicode="1" horiz-adv-x="1352" d="M10 802l1324 20l10 -338l-1334 31v287zM1344 320h10v-318h-1354v318h1344zM821 1489q-41 -61 -62 -102q82 20 123 41q57 28 85 62t28 61q0 15 -1.5 19t-8.5 11q0 8 -6.5 9.5t-24.5 1.5q-33 -9 -72 -37.5t-61 -65.5zM359 1581h-10v-20q24 -72 113 -123q61 -41 102 -41 q-20 61 -41 92q-23 39 -59 67t-74 36zM226 1540q0 52 10 72q20 41 41 62q7 3 19.5 11.5t22.5 14t20 5.5h71q69 -8 128 -51.5t98 -113.5q7 -7 13.5 -17t10.5 -18t9.5 -20t7.5 -16q5 10 20.5 35.5t20.5 35.5q39 64 102.5 110.5t123.5 54.5q9 4 21.5 4t28 -2t22.5 -2 q9 0 19 -5.5t22.5 -14t19.5 -11.5q21 -21 41 -62q10 -20 10 -72q-8 -56 -54 -112t-120 -93q-51 -29 -129 -51h498l11 -308l-1324 11l11 297h515q-93 28 -146 51q-71 40 -114 92.5t-50 112.5z" />
<glyph unicode="2" horiz-adv-x="1828" d="M451 453l106 32v-218l157 216l-38 28l37 51l171 -124l-37 -51l-36 26q0 -1 -1 -2l-161 -222l214 74v-116l-333 -123l-110 -151q-40 -40 -85 -11q-40 40 -10 85l99 137zM1422 559l-116 31l127 165l-250 -79l12 -37l-60 -19l-65 201l60 19l16 -49h2l274 87l-232 71l74 95 l361 -102l156 49q23 8 44.5 -5t29.5 -37q7 -23 -5.5 -44.5t-36.5 -29.5l-182 -57zM968 147v116l214 -74l-159 219l-37 -27l-37 51l75 55l8 8q7 5 15 8l72 53l38 -51l-37 -26l154 -212v218l106 -32l27 -369l100 -137q29 -45 -11 -85q-44 -29 -84 11l-110 151zM567 1044 l74 -95l-232 -71l274 -87h1l16 50l60 -19l-65 -201l-60 19l12 36l-257 82l135 -168l-116 -31l-209 259l-181 57q-25 8 -37.5 29.5t-4.5 44.5q8 24 29 37t44 5l156 -49zM1169 1107l-63 -95l-127 186v-270h42v-63h-105h-106v63h42v258l-126 -174l-64 95l190 294v181 q9 27 25.5 45t38.5 18q23 0 43 -19.5t20 -43.5v-181z" />
<glyph unicode="3" horiz-adv-x="1775" d="M887.5 1579q121.5 0 237 -32t213.5 -89.5t180 -140t139.5 -180t89.5 -213.5t32 -237t-32 -237t-89.5 -213.5t-139.5 -180t-180 -140t-213.5 -89.5t-237 -32t-237 32t-213.5 89.5t-180.5 140t-140 180t-89.5 213.5t-32 237t32 237t89.5 213.5t140 180t180.5 140 t213.5 89.5t237 32zM887 998l62 155h-127q-211 0 -297 -32q-86 -33 -137 -99t-51 -153q0 -76 40.5 -134.5t138.5 -119.5q107 -64 139.5 -95.5t32.5 -71.5q0 -48 -50 -85t-150 -37q-97 0 -174 19l-23 6q-35 -91 -51 -145l23 -7q32 -11 98 -18t122 -7q89 0 164 25.5t124.5 68 t76.5 97t27 112.5q0 75 -41.5 134t-147.5 126q-94 57 -134 97q-21 25 -21 59t16 54q17 25 68 40q22 7 61 9t124 2h87zM1496 1122q6 12 1.5 21.5t-18.5 9.5h-437l-62 -155h145q57 0 97 1t43 1q-15 -36 -77 -191.5t-117 -293.5l-54 -138h180q270 675 299 745z" />
<glyph unicode="4" d="M662 0v351h-636v165l669 950h147v-950h198v-165h-198v-351h-180zM662 516v661l-459 -661h459z" />
<glyph unicode="5" d="M-579 699l145 123q-83 112 -78 215.5t81 179.5q92 92 225 86.5t248 -120.5q109 -109 110.5 -233t-97.5 -223q-61 -62 -138.5 -83.5t-150.5 -4.5l-104 -136l633 -432l515 516l-121 122l-414 -414l-334 223q158 28 261 130q135 136 134.5 323.5t-148.5 335.5 q-141 140 -325 161q-226 26 -398 -146q-142 -142 -152 -310.5t108 -312.5z" />
<glyph unicode="6" d="M1019 1107l-179 -14q-24 106 -68 154q-73 77 -180 77q-86 0 -151 -48q-85 -62 -134 -181t-51 -339q65 99 159 147t197 48q180 0 306.5 -132.5t126.5 -342.5q0 -138 -59.5 -256.5t-163.5 -181.5t-236 -63q-225 0 -367 165.5t-142 545.5q0 425 157 618q137 168 369 168 q173 0 283.5 -97t132.5 -268zM284 475q0 -93 39.5 -178t110.5 -129.5t149 -44.5q114 0 196 92t82 250q0 152 -81 239.5t-204 87.5q-122 0 -207 -87.5t-85 -229.5z" />
<glyph unicode="7" d="M97 1274v173h949v-140q-140 -149 -277.5 -396t-212.5 -508q-54 -184 -69 -403h-185q3 173 68 418t186.5 472.5t258.5 383.5h-718z" />
<glyph unicode="8" d="M362 795q-112 41 -166 117t-54 182q0 160 115 269t306 109q192 0 309 -111.5t117 -271.5q0 -102 -53.5 -177.5t-162.5 -116.5q135 -44 205.5 -142t70.5 -234q0 -188 -133 -316t-350 -128t-350 128.5t-133 320.5q0 143 72.5 239.5t206.5 131.5zM326 1100q0 -104 67 -170 t174 -66q104 0 170.5 65.5t66.5 160.5q0 99 -68.5 166.5t-170.5 67.5q-103 0 -171 -66t-68 -158zM268 423q0 -77 36.5 -149t108.5 -111.5t155 -39.5q129 0 213 83t84 211q0 130 -86.5 215t-216.5 85q-127 0 -210.5 -84t-83.5 -210z" />
<glyph unicode="9" d="M112 339l173 16q22 -122 84 -177t159 -55q83 0 145.5 38t102.5 101.5t67 171.5t27 220q0 12 -1 36q-54 -86 -147.5 -139.5t-202.5 -53.5q-182 0 -308 132t-126 348q0 223 131.5 359t329.5 136q143 0 261.5 -77t180 -219.5t61.5 -412.5q0 -281 -61 -447.5t-181.5 -253.5 t-282.5 -87q-172 0 -281 95.5t-131 268.5zM849 986q0 155 -82.5 246t-198.5 91q-120 0 -209 -98t-89 -254q0 -140 84.5 -227.5t208.5 -87.5q125 0 205.5 87.5t80.5 242.5z" />
<glyph unicode=":" horiz-adv-x="1165" d="M-30 469l179 188l317 -357l-30 1041h288l-10 -1031l277 347l189 -178l-585 -555z" />
<glyph unicode=";" horiz-adv-x="1574" d="M593 -76l-661 760l191 161l510 -551l840 1061l186 -139l-926 -1262z" />
<glyph unicode="&#x3c;" horiz-adv-x="1196" d="M112 641v168l971 410v-179l-770 -316l770 -319v-179z" />
<glyph unicode="=" horiz-adv-x="2317" d="M602 1158l29 -1031h-277l10 1021l-278 -347l-188 179l575 555l624 -546l-178 -188zM1206 494l179 188l317 -357l-30 1031h288l-10 -1021l277 347l189 -178l-585 -555z" />
<glyph unicode="&#x3e;" horiz-adv-x="1477" d="M1131 619l-1131 -30v278l1121 -10l-347 278l179 188l555 -575l-545 -624l-189 178z" />
<glyph unicode="?" horiz-adv-x="798" d="M403 1536q180 0 295 -92t115 -266q0 -84 -27 -163t-64 -131t-75 -92q-28 -29 -65 -58l-42 -33l-15 -275l-259 -24l-15 360q10 6 26 17t56 48t71 76t56 98t25 119t-30 91t-84 31q-144 0 -206 -154l-206 150q64 146 179 222t265 76zM341 -56q-50 0 -84 39t-34 91 q0 70 71 143t143 73q54 0 91 -41t37 -95q0 -68 -73 -139t-151 -71z" />
<glyph unicode="@" horiz-adv-x="2079" d="M1161 163q-65 -75 -145.5 -120.5t-161.5 -45.5q-89 0 -173 52t-136.5 160t-52.5 237q0 159 81.5 318.5t202.5 239.5t235 80q87 0 166 -45.5t136 -138.5l34 155h179l-144 -671q-30 -140 -30 -155q0 -27 20.5 -46.5t49.5 -19.5q53 0 139 61q114 80 180.5 214.5t66.5 277.5 q0 167 -85.5 312t-255 232t-374.5 87q-234 0 -427.5 -109.5t-300 -314t-106.5 -438.5q0 -245 106.5 -422t308 -261.5t446.5 -84.5q262 0 439 88t265 214h181q-51 -105 -175 -214t-295 -172.5t-412 -63.5q-222 0 -409.5 57t-319.5 171.5t-199 263.5q-84 189 -84 408 q0 244 100 465q122 271 346.5 415t544.5 144q248 0 445.5 -101.5t311.5 -302.5q97 -173 97 -376q0 -290 -204 -515q-182 -202 -398 -202q-69 0 -111.5 21t-62.5 60q-13 25 -19 86zM677 434q0 -137 65 -213t149 -76q56 0 118 33.5t118.5 99.5t92.5 167.5t36 203.5 q0 136 -67.5 211t-164.5 75q-64 0 -120.5 -32.5t-109.5 -104.5t-85 -175t-32 -189z" />
<glyph unicode="A" horiz-adv-x="1490" d="M1170 1746q89 0 159 -36q70 -37 106 -95q36 -59 53 -129.5t0 -141.5q-16 -70 -52 -129q-36 -60 -104 -95q-74 -39 -156 -37q-14 0 -40 1l50 92q53 3 95 25t68 55q26 34 39 77q14 42 13 86t-17 86q-15 42 -43 74q-28 33 -73 53q-48 20 -101 20q-95 -1 -156 -53 q-61 -54 -78 -134l290 2l28 -54l-570 -805l12 -493q15 -1 159 -37q156 -38 156 -69q0 -29 -370 -29q-389 0 -390 31q-2 37 135 67q170 36 179 37l10 490l-602 793l39 64l832 4q9 56 34 106t66 89q40 40 99 62q60 23 130 23zM1102 1375l-984 -8l468 -611l83 -7zM671 870 l-106 19l-265 360q59 16 114 17q54 2 94 -6q39 -9 85 -19q46 -11 88 -19q49 -10 103 -5q117 9 130 20l-61 -92q-17 -26 -121 -183z" />
<glyph unicode="B" horiz-adv-x="975" d="M1 1163q0 200 188 200q60 0 311.5 -2t293.5 -2q94 0 135.5 -44.5t41.5 -153.5l4 -1024l-973 -9q-1 970 -1 1035zM738 891q84 0 117 71t-5 142.5t-126 71.5q-87 0 -125.5 -71.5t0.5 -142.5t139 -71zM606 551l102 197l-340 133l-67 -191zM619 1398l-8 273l-252 -13 l-16 -263l-81 12l-11 397h472l-22 -406h-82zM196 78l6 -78h-109v82zM884 78l6 -82l-109 3v82z" />
<glyph unicode="C" horiz-adv-x="1638" d="M37 267q-38 341 -38 379q0 193 133 237q38 133 85 227q16 41 35.5 72.5t54 64t80 53.5t113.5 34t153 13h341q178 0 278.5 -61.5t157.5 -203.5q41 -95 76 -218q64 -28 98.5 -90t34.5 -147l-19 -360h-1583zM312 400q52 0 90.5 24.5t55.5 61t17 79.5t-17 80t-55.5 61.5 t-90.5 24.5t-91 -24.5t-57 -61.5t-18.5 -80t16.5 -79.5t56.5 -61t93.5 -24.5zM1297 1016q-29 78 -63 117t-88.5 55.5t-151.5 16.5h-341q-64 0 -113.5 -9.5t-77.5 -21t-51 -35.5t-32 -39t-23 -44l-6 -12q-11 -22 -30.5 -79t-26.5 -73h1061q-9 19 -28 62t-29 62zM1345 693 q-39 0 -67.5 -19t-42.5 -47t-14.5 -61.5t12.5 -62t42 -47t70 -18.5t70.5 18.5t43 47t13.5 62t-13.5 61.5t-43 47t-70.5 19zM426 68q0 -29 -21.5 -52t-56 -35t-75.5 -17.5t-82.5 0t-76 17.5t-56 35t-21.5 52v104l389 10v-114zM1620 68q0 -34 -27.5 -59t-68.5 -36t-89 -11 t-89 11t-68.5 36t-27.5 59v114l370 -10v-104z" />
<glyph unicode="D" horiz-adv-x="1714" d="M1158 -110l241 878l-59 16l-240 -878zM1647 1467q37 -9 55.5 -42t8.5 -69l-414 -1532q-10 -37 -43 -55.5t-69 -9.5l-719 192q-36 10 -55 43q-17 30 -11 63l-292 -1h-107v1408h781l34 131q10 36 43 55t69 10zM504 975.5q0 25.5 18.5 44t44 18.5t44 -18.5t18.5 -44 t-18.5 -44t-44 -18.5t-44 18.5t-18.5 44zM101 156l770 1q89 0 125.5 33.5t36.5 115.5v891q0 92 -40.5 130.5t-138.5 38.5h-753v-1210zM566.5 1118q-58.5 0 -100.5 -41.5t-42 -101.5q0 -59 41.5 -100.5t101.5 -41.5q59 0 100.5 41.5t41.5 100.5t-42 101t-100.5 42zM567 804 q-71 0 -121 50.5t-50 121t50 120.5t121 50t121 -50t50 -121q0 -70 -50 -120.5t-121 -50.5zM378 432v72h379v-72h-379zM276 599v72h582v-72h-582zM994 76l-36 -131l58 -16l53 193q-30 -30 -75 -46zM1133 355l124 452l-59 17l-65 -239v-230zM1133 1161q59 -16 62 -17l74 -239 l51 -14l-5 221q18 -5 49.5 -13t41.5 -11l40 -70l34 -9l-6 97l54 82l-34 9l-69 -41q-10 2 -41.5 10.5t-49.5 13.5l115 189l-51 14l-184 -171q-58 15 -82 22q1 -18 1 -37v-36z" />
<glyph unicode="E" horiz-adv-x="1286" d="M374 1002q-23 -27 -55 -16q-10 3 -17 9q-17 14 -19 35.5t12 37.5q14 17 35.5 19t37.5 -12q17 -14 18.5 -35t-12.5 -38zM440 694q-9 -16 -26 -22.5t-35 -0.5q-7 2 -9 3q-19 11 -24.5 31.5t4.5 39.5q11 19 32 25t39 -5q19 -11 24.5 -31t-5.5 -40zM490 925 q-19 11 -24.5 31.5t5.5 39.5q10 18 31 24t39 -4q19 -11 25 -31.5t-5 -38.5v-1q-10 -17 -27 -23.5t-35 0.5q-5 1 -9 3zM542 178q21 -6 30.5 -25.5t2.5 -38.5q-7 -21 -26 -31t-39.5 -3t-30 26t-2.5 40q6 20 25.5 29.5t39.5 2.5zM324 514q20 -9 27.5 -28.5t-1.5 -38.5v-1 q-8 -18 -26 -26t-37 -2q-1 0 -2.5 0.5t-2.5 1.5q-19 8 -27 28t1 40q9 19 28.5 27t39.5 -1zM573 451q21 -7 30.5 -26t2.5 -40v-1q-7 -20 -26 -29.5t-39.5 -2.5t-30 26t-2.5 39q6 20 25.5 30.5t39.5 3.5zM9 583q14 17 35.5 19t38.5 -12q16 -13 18 -34.5t-12 -37.5l-1 -1 q-22 -27 -56 -16q-9 3 -17 9q-16 14 -18 35.5t12 37.5zM-68 322q14 17 35.5 18.5t38.5 -12.5q17 -13 19 -34t-12 -37l-1 -1q-23 -27 -56 -16q-10 3 -17 9q-17 14 -19 35.5t12 37.5zM214 765q-10 -15 -26.5 -20t-32.5 1q-3 1 -13 7q-17 12 -20.5 33t8.5 39q12 17 33 21t39 -8 q18 -13 21.5 -34t-8.5 -38zM275 241q19 -11 24.5 -31.5t-5.5 -39.5l-1 -1q-9 -16 -26 -22.5t-34 -0.5l-10 4q-18 11 -24 32t4.5 39t31.5 24t40 -4zM1049 507q-16 5 -26 19t-10 31q1 22 16.5 36.5t37.5 13.5q21 0 36 -15t14 -37v-1q-1 -22 -16.5 -36.5t-36.5 -13.5 q-8 0 -15 3zM1049 271q-14 5 -24 17.5t-12 28.5q-1 21 13 37.5t36 17.5q22 2 38 -12t17 -35v-1q1 -22 -13 -38t-36 -17q-11 0 -19 2zM1050 739q-15 5 -25 17t-11 28q-1 21 13 37t36 18q21 2 37.5 -12.5t17.5 -35.5v-1q1 -21 -13 -37t-36 -17q-11 0 -19 3zM635 706 q21 -6 30 -25t2 -40v-1q-7 -20 -26 -30t-39 -3t-30 26t-3 40q7 20 26 30t40 3zM1077 109q21 2 37 -12t18 -35v-1q1 -22 -13 -38t-36 -17q-11 0 -19 2q-15 5 -25 17.5t-11 28.5q-1 22 13 38t36 17zM896 898q20 -3 33.5 -19.5t11.5 -37.5v-1q-3 -21 -20 -34t-38 -10 q-3 0 -10 2q-17 5 -27 20.5t-8 34.5q3 21 20 34.5t38 10.5zM1058 1349q77 -71 107.5 -98.5t65.5 -69.5t41.5 -54.5t9.5 -47t-3.5 -54t-23.5 -69.5l-961 319q13 38 18 54.5t20 40.5t20 31t33 20.5t42.5 16.5t64 11t83 11t112.5 11l82 -27l65 198h231l-89 -266zM751 893 q-6 -21 -25.5 -30.5t-39.5 -2.5t-30 26t-3 39q7 21 26 30.5t40 2.5q20 -6 29.5 -25t2.5 -40zM809 129q21 -2 34.5 -19t10.5 -38q-3 -22 -20 -35.5t-38 -10.5q-3 0 -10 2q-17 6 -27 21t-8 34q3 22 20 35.5t38 10.5zM848 649q22 -2 35 -18.5t10 -38.5v-1q-3 -21 -20 -34 t-38 -10q-3 0 -10 2q-17 5 -27 20.5t-7 34.5q2 21 19 34.5t38 10.5zM823 396q21 -4 32.5 -22t6.5 -39v-1q-5 -21 -22.5 -32.5t-38.5 -6.5q-1 0 -2.5 0.5t-2.5 1.5q-19 6 -29 23.5t-5 36.5q4 21 22 32.5t39 6.5z" />
<glyph unicode="F" horiz-adv-x="1661" d="M777 1370h49v-108l-833 -15v123h69l31 103l650 24zM535 747l-53 -1q0 65 37.5 120t99.5 87q60 31 128 31q-1 10 -1 20q0 106 75.5 182t182.5 76q95 0 166 -62q62 -54 82 -130q27 7 56 7q111 4 187 -71.5t71 -185.5q-2 -34 -9 -62l-56 -1q11 33 11 63q0 84 -60 144 t-144 60t-144 -60t-60 -144q0 -34 11 -66l1 -1h-3l-53 -1v1l-98 -1v0h-1q-13 76 -73 127.5t-139 51.5q-81 0 -141.5 -53t-72.5 -131zM742 104q-88 31 -161.5 83t-130.5 124.5t-88.5 171t-31.5 213.5q75 0 640 7.5t690 7.5q0 -113 -29.5 -210t-82 -170t-121 -126t-152.5 -88 l38 -120h-597zM1450 800q0 -22 -10 -35.5t-33 -7.5q-19 4 -31.5 15t-11.5 28q1 23 10 32.5t33 10.5q26 1 34.5 -10.5t8.5 -32.5zM917 1077q0 21 9 32.5t34 10.5t33.5 -10.5t10.5 -32.5q1 -17 -11.5 -28.5t-32.5 -15.5q-23 -5 -33 8t-10 36zM770 816q-13 28 -10 39t36 17 q23 5 34.5 -0.5t14.5 -24.5q5 -29 2 -38.5t-20 -17.5q-19 -10 -29.5 -9.5t-14.5 6.5t-10 22zM1189 903q3 22 13 34.5t30 9.5q23 -4 35.5 -16t7.5 -28q-8 -29 -15 -37t-28 -6q-29 3 -37.5 13t-5.5 30zM712 800q5 -21 -1.5 -36.5t-30.5 -16.5q-45 -3 -53 33q-10 42 33 52 q16 4 24 5t14 -4.5t8 -11t6 -21.5zM649 81l-9 -84h-497l-106 1185h83l90 -1111zM1051 804q-1 8 -1 16q0 106 75 180q35 34 76 53q-14 60 -62 104q-57 55 -135 55q-84 0 -144 -62t-60 -147q0 -11 1 -24q69 -13 124 -61q57 -50 79 -119h1q24 0 46 5z" />
<glyph unicode="G" horiz-adv-x="1769" d="M1524 171q-35 -136 -87 -188t-145 -28q-90 24 -1117 328q-101 30 -151.5 94t-28.5 145l279 1032l1311 -360q-255 -882 -292 -1039q-9 -38 0.5 -59.5t27.5 -22.5t37.5 14.5t27.5 44.5l298 1037l87 -27q-210 -830 -247 -971zM352 1406q-206 -772 -227 -845q-16 -57 5 -98 t82 -59l928 -273l283 977zM988 990l19 78l235 -60l-20 -77zM1057 309l-353 99l16 64l354 -99zM373 934l70 290l486 -135l-80 -293zM610 436l-332 104l14 63l336 -104zM770 668l358 -95l-18 -66l-356 96zM336 792l358 -95l-19 -67l-355 97zM952 848l232 -60l-21 -77l-232 61z " />
<glyph unicode="H" horiz-adv-x="1419" d="M695 1264q15 22 40.5 27t48 -9t28.5 -40l92 -365q8 -36 47 -47l342 -83q27 -7 40.5 -29.5t7.5 -48.5t-30 -40l-301 -180q-16 -9 -24.5 -25.5t-6.5 -34.5l21 -375q2 -42 -36 -61t-70 8l-289 241q-30 25 -65 11l-331 -136q-40 -16 -70 14t-15 70l135 336q13 36 -10 65 l-229 281q-27 34 -7 71.5t63 33.5l357 -30q39 -3 59 29zM1186 1076q-16 -14 -35 -5.5t-19 29.5v188q0 20 -17 29l-156 82q-19 10 -17 31.5t23 27.5l168 52q19 4 22 24l36 185q4 21 24.5 25.5t32.5 -12.5l110 -153q13 -16 31 -12l178 26q21 3 32 -15.5t-1 -35.5l-106 -147 q-10 -15 -3 -33l77 -164q9 -19 -5.5 -35t-35.5 -9l-169 58q-18 6 -33 -7z" />
<glyph unicode="I" horiz-adv-x="1301" d="M394 1513q-12 102 60 156q61 46 134 29q79 -18 107 -98q12 -34 12 -76q0 -54 -16 -94.5t-41.5 -60.5t-57 -28.5t-64 2t-60.5 31t-48 57.5t-26 82zM491.5 806q-91.5 0 -169.5 -45t-123 -123t-45 -169.5t45 -169.5t123 -123t169.5 -45t169.5 45t123 123t45 169.5t-45 169.5 t-123 123t-169.5 45zM670 947l20 -8q95 -41 163 -109q22 -22 41 -47q118 37 213 37q116 0 113 -321q-1 -123 -16 -236q83 -7 113 -18q22 -8 23 -34t-9 -47l-10 -22h-304q2 15 5.5 39.5t9.5 90.5t6.5 120t-8 106t-28.5 70q-6 8 -11 10q11 -54 11 -110q0 -103 -40.5 -198 t-109 -163.5t-163 -109t-198 -40.5t-198.5 40.5t-163 109t-109 163.5t-41 198.5t40.5 198t109.5 163.5q56 57 131 94q2 65 12 120q12 71 38.5 128t72.5 88.5t108 31.5q40 0 75.5 -44t57 -106t34.5 -122q9 -42 11 -73z" />
<glyph unicode="J" horiz-adv-x="1684" d="M1634 1054q20 0 34 -14.5t14 -34.5v-752q0 -20 -14.5 -35t-34.5 -15h-166v-195q0 -21 -14 -35q-15 -14 -35 -14t-35 14l-230 230h-433q-20 0 -34.5 15t-14.5 35v172l625 36q51 4 78.5 11t44 25t21 43.5t4.5 72.5l-11 441h201zM1296 564l-767 -47l-230 -230 q-14 -14 -34.5 -14t-35.5 14q-14 15 -14 35v195h-165q-21 0 -35.5 15t-14.5 35v851q0 20 14.5 34.5t35.5 14.5h1235q20 0 34.5 -14.5t14.5 -34.5l12 -804q0 -21 -15 -35.5t-35 -14.5zM247 1269q-20 0 -34.5 -14.5t-14.5 -35t14.5 -35t34.5 -14.5h501q21 0 35.5 14.5t14.5 35 t-14.5 35t-35.5 14.5h-501zM247 1072q-20 0 -34.5 -14.5t-14.5 -35t14.5 -35t34.5 -14.5h842q20 0 34.5 14.5t14.5 35t-14.5 35t-34.5 14.5h-842zM247 776h657q21 0 35.5 15t14.5 35t-14.5 35t-35.5 15h-657q-20 0 -34.5 -15t-14.5 -35t14.5 -35t34.5 -15z" />
<glyph unicode="K" horiz-adv-x="1670" d="M903 865q18 -111 -10 -160t-119 -48q-73 0 -101.5 53t-8.5 151q123 -16 239 4zM1649 375q22 -19 24 -48t-17 -51q-135 -151 -352 -236t-468 -85q-252 0 -469.5 85.5t-352.5 237.5q-19 22 -17 50.5t23.5 48t50.5 17.5t48 -24q51 -61 98 -94q16 100 48.5 201.5t67 182.5 t36.5 88q25 83 -30 126q-33 25 -81.5 42t-96.5 13q-78 -6 -139 -78q-2 31 16.5 65t39.5 50q-10 -2 -18.5 -6.5t-21 -14.5t-22.5 -17q20 44 36 67t39 36q-8 -1 -13.5 -2t-8 -2t-10 -3.5t-15.5 -5.5q37 43 89 72q-12 4 -46 -5q43 44 103 57q17 3 32 3h1q7 1 23 1 q51 0 84.5 -13.5t73.5 -48.5q31 -27 55.5 -79.5t31.5 -99.5q28 -16 99 -29v-46q-2 -57 8 -100t30.5 -69t43 -41t51.5 -25q24 -9 24 -33v-91q0 -13 -8.5 -23t-20.5 -12q-219 -35 -374 -230q220 -111 493 -111q267 0 490 109q-83 104 -210.5 167t-266.5 71q-14 1 -23.5 11 t-9.5 24v85q0 32 24 33q32 2 60 21t50 57t28.5 95.5t-6.5 136.5q-2 36 4 69t14 48l8 16q-8 2 -27.5 -6t-34.5 -18l-15 -9q27 97 174 197l39 24q-12 3 -29 1.5t-33 -4.5l-15 -4q41 40 90 64t89 29.5t74.5 5t54.5 -4.5l19 -5q2 14 26 35.5t46 35.5l22 15q-4 -4 -7.5 -18.5 t-4.5 -27.5l-1 -12q9 15 38 32q-7 -17 -7 -47t3 -51l4 -22q21 -21 46 -73.5t39 -94.5l15 -42l20 -29q18 -29 14.5 -63.5t-23.5 -44.5q-75 -40 -98 21l-5 20q-35 5 -74.5 24.5t-61.5 36.5l-22 18q-29 -26 -44 -79.5t-10 -134.5t35 -167q21 -62 49 -137.5t43.5 -122 t32.5 -107.5q14 10 30 25.5t26.5 28t21.5 26.5t13 16q19 22 48 23.5t50 -17.5zM1451 1185q-11 0 -19.5 -8.5t-8.5 -20t8 -20t20 -8.5t20 8.5t8 20.5q0 11 -8 19.5t-20 8.5z" />
<glyph unicode="L" horiz-adv-x="1618" d="M1628 796q10 -23 11.5 -54t-4 -59.5t-22 -49t-40.5 -21.5q-8 0 -13.5 -3.5t-8.5 -8t-4 -12.5t-1.5 -13.5t0 -16t0.5 -14.5v-333q0 -62 -90 -62h-1292q-91 0 -91 62v343v3q0 12 -0.5 18.5t-2.5 17t-8.5 15.5t-16.5 5q-23 0 -39 20t-22 48t-5 58.5t10 52.5q17 40 52 63 t77 23q56 0 96 -40t40 -96l3 -317q244 55 552 55t552 -55q3 41 3 91v226q0 56 40 96t96 40q42 0 76.5 -22t51.5 -60zM340 748q0 86 -36.5 146t-109.5 76q3 55 8 97t14.5 91.5t23.5 86t37 76t53 68t73 54.5t96 42t122 25.5t152 9.5q120 0 214 -14t160 -37.5t114.5 -63.5 t77.5 -82t47.5 -103.5t26 -117t12.5 -132.5q-73 -16 -109.5 -76t-36.5 -146v-198q-219 38 -469.5 38t-469.5 -38v198zM933 1209q-29 0 -29 -21.5t29 -21.5h36v-36q0 -28 21 -28t21 28v36h36q29 0 29 21.5t-29 21.5h-36v36q0 28 -21 28t-21 -28v-36h-36zM933 849 q-29 0 -29 -21t29 -21h36v-36q0 -29 21 -29t21 29v36h36q29 0 29 21t-29 21h-36v36q0 29 -21 29t-21 -29v-36h-36zM571 1209q-29 0 -29 -21.5t29 -21.5h36v-36q0 -28 21 -28t21 28v36h36q29 0 29 21.5t-29 21.5h-36v36q0 28 -21 28t-21 -28v-36h-36zM571 849q-29 0 -29 -21 t29 -21h36v-36q0 -29 21 -29t21 29v36h36q29 0 29 21t-29 21h-36v36q0 29 -21 29t-21 -29v-36h-36zM234 89l-40 -93h-124l1 110zM1545 106l2 -110h-123l-40 93z" />
<glyph unicode="M" horiz-adv-x="1501" d="M875 1355q-91 30 -103 82q-12 49 50 88q78 49 227 49q171 0 243 -62q49 -43 24 -92q-23 -42 -96 -67v-34q-5 -105 -50.5 -159t-122.5 -54t-121 52.5t-51 155.5v41zM1131 1458q-119 6 -167 2q0 -27 9.5 -47.5t24 -31t32.5 -15.5t35.5 0t32.5 15.5t24 31t9 45.5zM377 951 l-7 -7l-105 -108q-53 67 9 140q0 15 -18.5 100.5t-37.5 163.5l-19 79l130 13q0 -18 24 -191.5t24 -189.5zM427 905l48 -41l-98 -137q-3 2 -14 11.5t-24 21.5t-24 24zM741 651l-213 -66l-87 89l92 151l11 -5l123 78q63 67 208 101l121 -192l19 205l80 -2l16 -208l125 190 q123 -26 208 -99q10 -63 75 -370q6 -65 -25 -125l-96 91l-53 -50l105 -115q-22 -32 -50 -63l-114 102l-46 -55l105 -105l-4 -4l9 -208l-592 9l9 302zM1159 706q0 -27 16.5 -45t40 -22t47 0.5t40.5 22t18 42.5q-114 6 -162 2zM578 1771l23 -293l-722 -93l-34 343z" />
<glyph unicode="N" horiz-adv-x="1479" d="M156 0v1466h199l770 -1151v1151h186v-1466h-199l-770 1152v-1152h-186z" />
<glyph unicode="O" horiz-adv-x="1411" d="M572 919l-1 -28h-1v-5q0 -1 -1 -1h-4h-1v1v5h-6v-5v-1h-1h-4h-1v1v5h-9v-6v-1h-5v0v1v6h-10v-5q0 -1 -1 -1h-4h-1v1v5h-6v-5v-1h-1h-4l-1 1v5h-7v-6h1l-4 -1q-1 0 -1 1v6h-9l-10 23l-9 -13v-10h11h1v-1v-5v-1h-1h-16h-1v1v8l-1 -2h-5v-6l-4 -1l-1 1v6h-7v-6v-1h-4h-1v1v6 h-3v58h3v0h1h16v0v0h6v0v1h1h15h1v-1v0h5h1h3h1h6h1h3h1h3l4 -10v3q0 2 1 3q1 0 1.5 1t0.5 2q2 1 3 1l1.5 0.5l1.5 0.5q3 0 4 -1l1 -0.5l1 -0.5q2 -2 2 -3v-1l4 5v0v0v1h1h16h1v-1v0h3l2 -4v1q1 1 1 2q2 1 3 1l1 0.5t2 0.5q3 0 4 -1l1 -0.5l1 -0.5q2 -2 2 -3q1 -1 1 -3v-21z M980 710l-4 -1l-1 1v20h-4q-2 0 -2.5 -1t-0.5 -2v-16v-1h-6v0v1v16v4t1 2h1l-1 1q-1 1 -1 2v1.5v2.5v27q0 2 1 5q1 2 5 4h1v0h1h9h1v-66zM952 765q0 2 -1 3t-2.5 1t-2.5 -1t-1 -3v-47q0 -2 1 -2q1 -1 2.5 -1t2.5 1t1 2v9v1h1h4h1v-1v-9q0 -3 -1 -4l-0.5 -1t-1.5 -2t-2 -1 t-2 -0.5t-2 -0.5q-2 0 -3 1q-1 0 -3 1.5t-2 2.5t-0.5 2t-0.5 2v47q0 3 1 4q1 0 1.5 1l0.5 1q2 2 3 2l1.5 0.5l1.5 0.5q3 0 4 -1l1 -0.5t1 -1.5l2 -2q0 -1 0.5 -2.5l0.5 -1.5v-6v-1h-1h-4h-1v1v6zM937 769h-1h-4v-15l2 -3v-34h-2v-7v-1h-1h-4l-1 1v7l-21 1v-3h12h1v-1v-3v-1 h-1h-16h-1v1v7l-1 1l-5 6v-7q0 -2 -1 -4l-0.5 -0.5t-0.5 -1v-1.5q-2 -2 -4 -2q-1 0 -1.5 -0.5t-1.5 -0.5h-3v1v3q0 1 1 1h3q2 0 2 1q1 1 1 3v10q-1 0 -2 -0.5t-2 -0.5q-2 0 -3 1q-1 0 -1.5 0.5l-0.5 0.5l-1 1l-1 1l-0.5 0.5t-0.5 1.5v0l-7 -10v-4q0 -2 -1 -6q-1 -1 -5 -3 l-1 -0.5t-2 -0.5h-8h-1v1v9h-15v-3h11h1v-1v-3v-1h-1h-15h-1v1v7l-19 -1v-8v-1h-1h-3h-1v1v8h-7l-2 3v-10v-1h-4h-1v1v21l-2 3v35h-3h-1v0v4v1h1h3h12h1h15h1l11 -7v7v1h1h15h1v-1v-3l2 3h25v1h1h4h1v-1h7h1h3h1h6v1h1h16h1v-1v-1l2 -4v0v4v1h1h16h1v-1v-4h-1zM778 766 q0 2 -1 2l-1 0.5l-1 0.5q-2 0 -3 -1t-1 -2v-47q0 -2 1 -2q1 -1 2.5 -1t2.5 1l1 2v47zM782 771v-1q0 -1 1 -1v-3v-47v-3q0 -1 -1 -1v-1l-3 -3h-3.5h-3.5l-3 3q0 1 -0.5 1.5t-0.5 1.5l-0.5 1l-0.5 1v48q0 2 1 2q0 1 0.5 2l0.5 1q2 1 3 3q1 1 3.5 1t3.5 -1q0 -1 1 -2zM761 710 l-5 -1h-1v1v18l-6 -10v-8v-1h-1h-4l-1 1v7h-48v-1q0 -1 -1 -1q0 -1 -1 -1l-3 -3h-3.5h-3.5q0 1 -1 1l-1 2l-1.5 1.5t-0.5 1.5l-7 -2v-5v-1h-1h-4q-1 0 -1 1v3l-3 -1l-3 5v-8v-1h-1h-4l-1 1v15l-5 7v-15q0 -2 -2 -5q-1 -2 -4 -4q-1 3 -2 3h-2h-8v1v6h-6v-7l-4 -1h-1v1v7h-7 v-1v-2q0 -1 -1.5 -2.5t-3.5 -1.5q-1 0 -1.5 -0.5t-1.5 -0.5h-1v1v3q0 1 1 1h1q1 0 1 1q1 1 1 2h-6v-1q0 -1 -1 -1q0 -1 -1 -1t-1.5 -1t-1.5 -2h-3.5h-3.5q0 1 -1 1l-1 2l-1.5 1.5t-0.5 1.5h-4l-7 9v-16v-1h-5h-1v1v24l-6 7l-7 -24h-40v-7h1l-4 -1h-1v1v7h-18v-7v-1h-1h-5v0 v1v7h-6v-6q0 -1 -1 -1h-3h-1v1v6h-6v-7v-1h-5h-1v1v7h-7q0 -2 -1 -5q-1 -1 -5 -3q-1 0 -2 -1h-4h-3h-1v1v8h-3v57h33l1 1q3 0 4 -1q0 -1 1 -1t2 -1q1 -2 1 -3q1 0 1 -3v-1l6 -7v15v1v0h5v-1v-1l0.5 -1t0.5 -2l1 -4q1 -1 1.5 -2.5t1 -2t0.5 -2t0.5 -2t1 -2t1.5 -2.5 q0 -1 0.5 -2t0.5 -2v2v2t2 4q1 1 1 2.5t1 2.5l0.5 2t1 2.5t1 2l0.5 1.5q0 1 1 1l-1 4h1h5h1h48h1h16v0h8l1 1q1 1 3.5 1t3.5 -1l1 -1h33h4h1h26l14 4l6 -5q0 1 1 2t3.5 1t3.5 -1t1.5 -2t1.5 -2l1 -1q0 -1 1 -1v-3v-6l1 -2l7 16h45v-1h12h1v-4v-59zM689 766v2q-1 0 -2 0.5 l-1 0.5l3 -4v1zM910 885l-5 -1v1v13l-4 4q-3 0 -4 1l-2 1.5t-2 2.5t-0.5 2t-0.5 2v0l-8 9l-11 -29h-40v0h12h1v-1v-5v-1h-1h-16h-1v1v6l-6 -2v-4l-4 -1h-1v1v2l-3 -1l-3 5v-6v-1h-1h-4h-1v1v14l-6 8v0v-22l-4 -1h-1v1v10l-2 -4h-17v-6v-1h-4h-1v1v6h-48v-5q0 -1 -1 -1h-3h-1 v1v5h-7v-5v-1v0h-4h-1v1v5h-7v-6h1l-4 -1h-1v1v6h-1l-6 8v-14v-1h-1h-4v0v1v20l-9 11l-8 -10l2 -15h-44v0h11h1v-1v-5v-1h-1h-16h-1v1v6h-2v58h2v0v1h1h16h1v-1v0h47v0v1v0h4h1v-1v0h6v0q0 1 1 1h3h1v-1v0h10v-1l2 1q2 1 3 1q3 0 4 -1l1 -0.5l1 -0.5q2 -2 2 -3q1 -1 1 -3 v-13l10 -14l3 11l5 23h30v0v1h1h4v-1v0h18v0h4h1v0h7v0v1h1h4h1v-1v0h6v0q0 1 1 1h3h1v-1v0h6v0v1h1h16h1v-1v-4v-1h-1h-8l10 -11l7 16h38h1h4v0h7h1h3h1h4v0v1h1h16h1v-1v0h8h1q0 1 3 1t4 -1h1h17v-12l-13 -11l13 -35h-14l-1 -1q0 -1 -1 -1q0 -1 -1 -1.5t-1 -1.5 q-1 -1 -4 -1t-3 1q-1 0 -1 1q-2 1 -2 2l-0.5 1t-1.5 1h-10v-6v-1h-1h-4h-1v1v6h-8l-2 2v-8h1zM717 942q0 1 -1 2t-3 1q-1 0 -2 -1l5 -7v5h1zM614 945l-1 -1h-5v-59v-1h-1h-4v0v1v59h-6h-1v1v4v1h1h16h1v-1v-4zM593 885l-5 -1v0v1v35l-7 -7v-28v-1h-1h-4h-1v1v64v1h1h4h1v-1 v-28l7 7v21v1v0h4h1v-1v-64zM575 960v4v1l9 -3l8 3v-1v-3v-1l-8 -4zM564 942q0 1 -1 2t-2.5 1t-2.5 -1t-1 -2v-1l6 -9v10h1zM522 942q0 1 -1 2t-3 1t-2.5 -1t-0.5 -2v-13l1 -2l5 8v7h1zM628 1116q0 2 -1 3t-2.5 1t-2.5 -1q0 -1 -0.5 -1.5t-0.5 -1.5v0l6 -6v6h1zM610 1061 l-5 -1h-1v1v6l-6 -2v-4v-1h-1h-4h-1v1v4l-5 7v-3q0 -3 -1 -4l-0.5 -0.5t-0.5 -1t-0.5 -1l-0.5 -0.5l-1 -0.5t-1.5 -0.5t-1.5 -0.5l-1 -0.5h-5v1v4q0 1 1 1h4q2 0 2 1v2v10v0l-1 -0.5t-2 -0.5q-3 0 -4 1l-0.5 0.5t-1 0.5t-0.5 1q-1 0 -1 2q-1 1 -1 2q-1 0 -1 2v9l-2 3h-3v-38 l-5 -1h-1v1v38l-6 -30v-2v-2q0 -1 -2 -2q-4 -2 -5 -2l-1 -0.5l-1 -0.5h-1v1v4q0 1 1 1h1q1 0 1 1v2h-5v-7q0 -1 -1 -1h-3h-1v1v7h-6v-7v-1h-1h-5v0v1v7h-5v-8v-1h-1h-4q-1 0 -1 1v8h-6v-8v-1h-4v9h-4l-4 5v-12q0 -1 -1 -1h-4h-1v1v19l-6 8v-19v-3q0 -1 -1 -2q0 -1 -1 -1 q0 -1 -2 -3q-1 0 -2.5 -0.5t-2.5 -0.5q-2 0 -3 1l-3 3q-1 1 -1 2t-0.5 1.5t-0.5 1.5h-6v-8l-5 -1h-1v1v8h-6v-8v-1h-4h-1v1v8h-3v56h3h1h16v0h11q1 0 2 0.5l1 0.5q3 0 4 -1h11v1h1h4h1v-1v-6l7 -10v16h3v-1v-19l2 -3h2q1 0 1 1q1 1 1 2v20v1h5h1v-1v-19v-1l6 20h7l1 0.5 l1 0.5q3 0 4 -1h10h1h17h1h5v1h1h4v0v-1h7v1h1h4h1v-1h5v1h1h3h1v-1h7v1h1h4h1v-1h2l5 -5v1l1 1l3 3h3q3 0 4 -1l1 -0.5t2 -1.5l1 -1l1 4h4v1h1h15h1v-1h8q1 0 2 0.5t2 0.5q2 0 3 -1h20l14 -11v-45h-29v-7v-1h-4h-1v1v8l-6 7v-15v-1h-5h-1v1v19l-4 -12h-5v-8v-1h-1h-4h-1v1 v8h-8q0 -3 -1 -4l-2 -2t-2 -1.5l-1 -0.5l-1.5 -0.5t-2.5 -0.5q-2 0 -3 1q-1 0 -2.5 1.5t-1.5 2.5t-0.5 2t-0.5 2h-6v0v-8zM593 1136v4v1l9 -4l8 4v-1v-4v0l-9 -4zM1293 621q12 0 20 3t11 9.5t4 12t1 16t-1 16t-4 12t-11 9.5t-20 3q-24 0 -31 -10t-7 -31q0 -13 2 -20.5 t10.5 -13.5t25.5 -6zM1293 447q23 0 29.5 9.5t6.5 31.5q0 10 -1 15.5t-4 12t-11 9.5t-20 3q-24 0 -31 -10t-7 -30q0 -14 2 -21.5t10.5 -13.5t25.5 -6zM243 184l913 1v115l-916 25zM267 1384l-9 -774l882 13l-8 543l-222 -18l4 237zM1323 809q37 -1 60.5 -32.5t23.5 -86.5 v-690h-1408q9 608 9 702q0 67 29 91.5t91 24.5h17q0 -1 33 -1v655l783 3l257 -253l6 -411q40 -1 61 -1.5t38 -0.5zM975 736v33h-4q-2 0 -2.5 -1t-0.5 -2v-27q0 -2 1 -2q0 -1 2 -1h4zM921 769l5 -8v8h-5v0zM887 734l-4 6l-1 -2v-1q0 -2 0.5 -3t2.5 -1q1 0 2 1zM864 718h-7v-3 h4q1 0 2 1t1 2v0zM848 769h-11v0v-6l5 -3zM749 743l6 -12v38h-6v-26zM689 717h-6q1 -1 3 -1t3 1zM644 724l-4 -7h-3v-2h3q2 0 3 1t1 2v6zM595 717h-5q1 -1 3 -1t2 1zM494 750l4 -6l-0.5 1t-0.5 1.5t-0.5 1.5l-0.5 1l-2 6v-5zM508 744l2 1v6l-1 -2v-1v-1.5t-0.5 -1.5l-0.5 -1 v0zM454 717h-7v-3h4q1 0 2 1zM628 1069h-7q0 -2 1 -3h2q2 0 3 1t1 2zM577 1086l-3 3v-1q0 -2 1 -2h2v0zM510 1097l2 -3v0q0 2 -1 2zM478 1080l-5 -11h-2q0 -1 1 -1q1 -1 2.5 -1t2.5 1l1 2v10z" />
<glyph unicode="P" horiz-adv-x="1524" d="M627 1018v-251h98q105 0 141 14q37 15 56 44q20 30 20 69q0 48 -29 80t-72 39q-32 5 -128 5h-86zM448 284v884h286q161 0 212 -13q77 -21 127 -87q51 -66 51 -172q0 -81 -29 -137q-30 -57 -75 -87q-46 -32 -92 -42q-62 -12 -185 -12h-116v-334h-179zM1369 1313 q-1 18 -14 30.5t-32 12.5l-1139 -10q-18 0 -31 -13t-13 -31l-22 -1136q0 -19 13 -32.5t31 -13.5l1197 -6q19 -1 32.5 12.5t12.5 32.5zM1444 1476q17 0 30 -12.5t14 -30.5l34 -1394q1 -19 -12 -32t-32 -13l-1439 6q-17 0 -29 12.5t-12 30.5l21 1379q1 18 14 30.5t31 12.5z " />
<glyph unicode="Q" horiz-adv-x="1565" d="M1189 793l-365 177l118 524l134 -181l269 -39l52 -123q164 -61 188 -71q9 -46 -4.5 -92.5t-42.5 -83t-69.5 -66.5t-87.5 -45t-96.5 -17.5t-95.5 17.5zM1052 113q27 0 49 -31.5t22 -80.5h-259l-12 334l-525 16l-157 -238q4 -1 11 -1.5t24 -7t29.5 -17.5t21.5 -33.5 t7 -52.5h-320l232 920l70 2l48 -170l477 113l396 -179zM498 269l-101 -157q4 -1 10.5 -1.5t23.5 -7t29.5 -17.5t21.5 -33.5t7 -52.5q-148 0 -148 1q0 54 -19 90.5t-51 36.5l77 157zM787 -3h-101l-9 271l121 -5z" />
<glyph unicode="R" horiz-adv-x="1479" d="M161 0v1466h650q196 0 298 -39.5t163 -139.5t61 -221q0 -156 -101 -263t-312 -136q77 -37 117 -73q85 -78 161 -195l255 -399h-244l-194 305q-85 132 -140 202t-98.5 98t-88.5 39q-33 7 -108 7h-225v-651h-194zM355 819h417q133 0 208 27.5t114 88t39 131.5 q0 104 -75.5 171t-238.5 67h-464v-485z" />
<glyph unicode="S" horiz-adv-x="1494" d="M253 93h1142l-76 1011h-146q-7 -62 -16 -111q-4 -24 -8 -47q0 -1 1 -2q27 -28 27 -68t-26.5 -67.5t-64 -27.5t-64 28t-26.5 67q0 40 26 68q16 17 37 23q14 72 22 137h-483q-8 -70 -13 -150q8 -5 15 -13q26 -28 26 -67t-26.5 -67t-64 -28t-64 28t-26.5 67.5t27 66.5 q10 11 22 18q4 77 12 145h-217zM1405 1195l89 -1193h-1279l-94 58l-141 32l142 1103h63h30h85q-7 117 13 209q22 101 74 161q60 70 156 76q64 3 122 -12q-3 -2 -8 -5.5t-7 -5.5q-30 -27 -59 -71q-35 3 -43 2q-56 -2 -93 -45q-39 -44 -55 -129q-15 -79 -8 -180h127 q12 72 28 130q48 172 137 254q92 84 225 77q123 -7 193 -100q36 -49 55.5 -120.5t22.5 -142.5q2 -47 0 -98h225zM1086 831q-7 0 -11 1q-18 4 -28 20t-6 35q6 23 11 45q-5 -4 -9 -8q-18 -20 -19 -48q0 -27 18.5 -47t43.5 -20q26 0 44 20t18 47q0 18 -7 32l-10 -42 q-3 -15 -16 -25t-29 -10zM612 1195h476q1 35 0 67q-3 163 -60 239q-43 58 -125 64q-95 5 -158 -53q-92 -86 -133 -317zM583 918q-1 -21 -2 -43q0 -20 -14 -33.5t-33 -10.5q-19 1 -32 15t-12 32l2 44v-1q-18 -19 -18 -46.5t18 -47t44 -19.5q25 0 43.5 19.5t18.5 46.5 q0 25 -15 44z" />
<glyph unicode="T" horiz-adv-x="1979" d="M812 1282q-64 0 -108.5 36.5t-56 88.5t-3 103.5t49.5 88t102 36.5q72 0 120 -36.5t58.5 -88t-0.5 -103.5t-55.5 -88.5t-106.5 -36.5zM448 854q-71 0 -121 40.5t-62.5 98.5t-3.5 116t55.5 98.5t114.5 40.5q81 0 134.5 -40.5t65 -98.5t-0.5 -116t-62 -98.5t-120 -40.5z M1813 1228q187 -601 231 -789q-95 -109 -194.5 -188.5t-191 -124.5t-184.5 -73.5t-182 -39t-175.5 -15.5t-173 -9.5t-166 -14.5t-163 -36.5t-156.5 -69.5l-71 228q-96 -39 -188 -91q-179 618 -243 847q81 69 169 118q17 -69 52 -121q-53 -32 -79 -51q10 -38 89.5 -306 t90.5 -302q109 60 236 93l-143 431q39 -8 78 -8q86 0 154.5 35.5t108.5 92.5t57 127t8 141q85 5 146 11.5t146.5 23t157.5 41t158 66.5t168 100q36 -107 124.5 -408.5t118.5 -427.5q-97 -89 -191.5 -147t-180.5 -85.5t-169 -40.5t-172.5 -17t-174.5 -8t-192 -21t-208 -49 l24 -87q88 33 188 48t188 17t184 4.5t191.5 18t194 49t208 105.5t218.5 181l-202 683zM1473 1148q-167 -96 -339 -133l186 -635q184 47 327 170q-35 137 -174 598z" />
<glyph unicode="U" horiz-adv-x="1499" d="M1264 1668q162 -50 113 -218q-10 -32 -56 -148q-160 -406 -216 -563q20 -25 9 -60q-12 -36 -44 -44h-3q-18 -52 -26 -76q-16 -52 -47 -158q-51 -186 -109 -446q-24 -101 -27 -113q-54 -166 -216 -110q-52 17 -82.5 40t-38.5 52.5t-5 57t15 65.5q8 27 44 108 q108 252 172 426q30 87 53 157q0 1 10 31t14 46q-20 26 -9 61q12 33 40 42q70 241 154 588q39 149 40 151q23 72 79 104t136 7zM972 416q3 25 -13 30l-51 19l39 119q7 24 -21 32q-27 8 -33 -13l-40 -120l-53 16q-18 7 -26 -16q-8 -26 11 -32l161 -52q17 -5 26 17zM1076 694 q9 24 -10 30l-70 21l32 97q4 12 -1.5 22.5t-17.5 14.5q-7 2 -15 0q-17 -6 -21 -20l-32 -97l-64 20q-4 1 -10 1q-10 -2 -15 -18q-9 -25 10 -32l188 -56q5 -1 11 -1q10 1 15 18zM876 1926q165 -45 118 -211q-8 -29 -51 -149q-135 -378 -196 -570q21 -27 11 -61 q-11 -37 -43 -45h-3q-15 -52 -23 -76l-41 -160q-31 -130 -92 -450q-17 -95 -23 -114q-48 -168 -211 -119q-53 16 -84 38t-40 51t-7 56t13 66q1 4 41 110q93 239 156 432q30 92 48 158q5 14 12.5 42.5t9.5 34.5q-20 25 -11 61q10 33 38 43q49 195 134 591q25 126 33 154 q20 72 75 106t136 12zM624 663q9 26 -9 31l-53 16l35 122q3 11 -4 19.5t-19 12.5q-27 8 -33 -15l-35 -122l-55 14q-18 6 -26 -18q-8 -26 11 -31l162 -47q18 -6 26 18zM721 946q9 26 -10 30l-70 18l29 97q3 13 -3 23t-17 14q-9 2 -15 0q-16 -2 -23 -20l-29 -97l-64 17h-10 q-10 -2 -16 -19q-5 -26 13 -30l189 -52h11q10 2 15 19zM364 1158l-33 11l-240 -1067l35 -8q2 0 8 -3l21 -6l-6 -26v-1q-2 -2 -2 -3l-7 -34l-73 17l-26 -97l-33 9l15 97l-68 15l12 69l67 -17l239 1065l-42 10l12 68l38 223l162 -44l-63 -214v-2zM1450 896l-37 9l-378 -1026 l34 -12q6 -3 7 -5l20 -8l-9 -24v-1q-2 0 -2 -2l-12 -32l-70 26l-38 -92l-31 13l28 94l-65 25l21 66l64 -25l378 1024l-41 14l20 66l68 217l156 -65l-91 -203z" />
<glyph unicode="V" horiz-adv-x="1000" d="M1000 391q9 -111 -29.5 -198.5t-109.5 -138.5t-160.5 -76t-188.5 -21l-48 -361l-70 9l5 363q-97 19 -178.5 62.5t-140 111.5t-75 157t14.5 200q0 1 43 140q66 -10 120 26.5t63 116.5q7 64 7 66q7 54 -16.5 93.5t-66.5 60.5q-3 64 8.5 118.5t31 91t49.5 66.5t58 47 t63.5 31t58 19t49.5 10.5t31 6.5l52 337l189 -28l-32 -337q2 -1 25 -11.5t41.5 -20.5t47.5 -31.5t50.5 -44.5t43.5 -59.5t32 -77t10 -97t-15 -118.5q-46 -11 -78 -44t-38 -88l-4 -32.5t-4 -33.5q-9 -78 37 -126.5t113 -53.5q11 -118 11 -135zM248 454q46 -5 88.5 28.5 t68.5 86.5t40 109.5t7 101.5t-34 57q-36 16 -61.5 4t-26.5 -37t16 -50l57 20q0 -69 -33.5 -134t-77.5 -93l-19 52q-2 0 -6 1.5t-15 2t-20.5 -1.5t-20 -10.5t-15.5 -23.5q-18 -38 -4.5 -72.5t56.5 -40.5zM767 388q44 -4 64 24t14 70q-3 25 -20 37.5t-32 12.5h-15l-31 -46 q-37 38 -52.5 105.5t0.5 140.5l52 -34q25 19 28.5 45.5t-18 43.5t-60.5 11q-30 -4 -48.5 -45.5t-18.5 -99.5t12 -116t45.5 -100.5t79.5 -48.5zM917 2143l-118 4l-9 -98l112 -13l-13 -117l-109 15l-11 -129l-183 7l13 85l-102 7l13 130l106 -24l16 98l-111 5l13 117l113 -26 l20 133l147 -15l-6 -66l118 -11z" />
<glyph unicode="W" horiz-adv-x="1887" d="M1718 697q-92 106 -216.5 181t-260.5 112t-284 38t-286.5 -33.5t-269.5 -110.5t-231 -186l-185 183q119 132 277.5 223t329.5 134.5t355.5 43.5t354.5 -43.5t327.5 -134.5t275.5 -222zM1549 529l-182 -180q-67 94 -183.5 144t-238.5 49.5t-240 -49.5t-187 -141l-178 178 q72 87 171.5 147.5t208 89.5t226 28.5t225.5 -29.5t207 -90t171 -147zM1176 160l-233 -231l-233 233q38 60 101.5 93.5t130 36t131 -31.5t103.5 -100z" />
<glyph unicode="X" horiz-adv-x="1772" />
<glyph unicode="Y" horiz-adv-x="1967" d="M1962 1033l157 -469l-855 -273l-625 -200l-157 498l404 120zM706 239l788 230l-107 293l-744 -247zM393 1173l-67 60q61 71 48 153q-5 32 -19 55t-29.5 36t-34 39t-28.5 61q-19 60 21.5 144t103.5 130l66 -62q-60 -50 -31 -145q8 -29 25.5 -52t33.5 -36.5t31 -40.5 t21 -64q10 -70 -32.5 -155.5t-108.5 -122.5zM169 1188q7 -29 30.5 -57t48 -47.5t49 -52t32.5 -69.5q16 -65 -36 -159.5t-120 -133.5l-68 59q34 34 53.5 83.5t10.5 87.5q-6 25 -22.5 47.5t-36.5 40.5l-40 36t-37.5 43.5t-24.5 55.5q-16 70 30.5 157t111.5 134l67 -63 q-35 -28 -47 -71.5t-1 -90.5zM173 491l158 -493l-148 -45l-178 484zM398 563l169 -493l-161 -50l-141 500z" />
<glyph unicode="Z" horiz-adv-x="1808" d="M1677 549l137 30q-13 -125 -55.5 -241t-118 -217.5t-175.5 -176t-235.5 -118t-291.5 -43.5q-238 0 -419 70t-298 202l126 62q100 -96 250.5 -148t336.5 -52q157 0 266.5 37.5t200.5 120.5l-1048 1122q27 33 33 105.5t-17 119.5q119 87 246 127.5t303 40.5q233 0 410 -89 t293 -244l-127 -56q-99 120 -244.5 188t-332.5 68q-285 0 -486 -158l409 -428l849 284l145 -436l-650 -208l314 -328q157 221 179 366zM96 1340q9 58 -4.5 109t-61.5 106l77 63q31 -24 62.5 -61.5t58 -87.5t35.5 -102.5t-4 -106.5q-10 -35 -31 -60.5t-45 -41t-47.5 -29.5 t-42 -33.5t-25.5 -44.5q-8 -40 5 -91.5t43 -93.5l-83 -54q-51 60 -77 114t-27 98.5t9 90.5q9 37 34.5 71.5t50.5 56t47 48t26 49.5zM860 528l91 -96l-593 -181l-122 433l384 118l83 -90l-342 -96l83 -230zM142 655l138 -428l-129 -39l-155 421zM921 786l178 -186l190 36 l-92 256z" />
<glyph unicode="[" horiz-adv-x="569" d="M139 -407v1873h397v-149h-217v-1575h217v-149h-397z" />
<glyph unicode="\" horiz-adv-x="569" d="M425 -25l-425 1516h145l424 -1516h-144z" />
<glyph unicode="]" horiz-adv-x="569" d="M436 -407h-397v149h217v1575h-217v149h397v-1873z" />
<glyph unicode="^" horiz-adv-x="1212" d="M99 812l151 165l268 -314l-26 834h240l-11 -827l238 306l157 -157l-489 -491zM1224 -36h-1231l10 371h67l44 -140h1000l41 140h59z" />
<glyph unicode="_" d="M-31 -407v130h1193v-130h-1193z" />
<glyph unicode="`" horiz-adv-x="682" d="M465 1194h-145l-231 280h241z" />
<glyph unicode="a" horiz-adv-x="1865" d="M1494 997q-4 -55 -15 -229.5t-17 -245.5q-4 -49 -23.5 -92t-46.5 -72.5t-59 -53.5t-63 -38t-56.5 -23t-41.5 -13l-16 -3l-53 570l-158 -85l-317 -169l-337 285l5 10t15.5 22t27 29.5t38.5 27t50.5 20t62.5 4t75 -17.5q21 -10 106 -32q147 101 410.5 268.5t401.5 249.5 q102 58 211.5 97t192.5 44t113 -36q26 -41 -10.5 -116.5t-120 -157t-185.5 -137.5q-10 -10 -23.5 -19t-34 -20.5t-37.5 -20t-47.5 -23t-47.5 -23.5zM491 1430q4 4 10 12.5t27.5 30t45 39t61 35t76 23.5t89.5 -1.5t103 -33.5q232 -116 348 -169l-390 -211zM808 -48l-844 22 l-21 168l875 21z" />
<glyph unicode="b" horiz-adv-x="1758" d="M1107 -193l-21 211l876 -21l-21 -169zM1160 251q-75 7 -104.5 51t-11.5 96l242 -52q-18 -46 -50.5 -74.5t-75.5 -20.5zM1096 472q-18 5 -46 16t-69.5 28.5t-74.5 29.5q-147 -116 -464 -338q-131 -100 -287 18q-44 33 -72 67l412 411q-36 12 -93.5 39.5t-75.5 34.5 l-306 116l-21 412q4 1 10.5 3.5t26.5 6.5t39.5 5t46 -4t48.5 -17t44.5 -37.5t37.5 -62.5q8 -11 15 -26.5t10 -25t9.5 -29.5t7.5 -24q166 -36 458.5 -128t470.5 -157q111 -42 206 -103t147.5 -125t36.5 -110q-15 -50 -97.5 -65t-194.5 3.5t-225 61.5zM579 1580q6 1 16 2.5 t39.5 3t56.5 -1t62 -12t62 -26.5t49.5 -49t31.5 -75q7 -27 23 -99.5t34.5 -149t37.5 -142.5l-391 64z" />
<glyph unicode="c" horiz-adv-x="3847" d="M2337 1284q4 4 10 12.5t27.5 30t45 39t61 35t76 23.5t89.5 -1.5t103 -33.5q232 -116 348 -169l-390 -211zM3350 851q-4 -55 -14.5 -229.5t-16.5 -245.5q-5 -49 -24 -92.5t-46.5 -72.5t-59 -53t-63 -38t-57 -23t-41.5 -13l-15 -3l-53 569l-158 -84l-317 -169l-337 285 q1 4 4.5 9.5t16 22t27 29.5t38.5 27t50.5 20.5t62.5 4t75 -17.5q21 -11 105 -32q148 101 411.5 268.5t401.5 248.5q75 44 159.5 77.5t158 51t129 12.5t70.5 -35q26 -41 -10.5 -116.5t-120 -157t-186.5 -138.5q-9 -9 -22.5 -18.5t-34.5 -20.5t-37.5 -19.5t-47 -23 t-48.5 -23.5zM565 1579q5 1 15 2.5t39.5 3t57 -1t62 -12t62 -26.5t50 -49t30.5 -75q6 -24 25.5 -96.5t37.5 -145.5t32 -138l-380 53zM1082 471q-19 5 -46.5 16t-69 28.5t-74.5 29.5q-148 -116 -464 -338q-37 -28 -76.5 -38.5t-73.5 -4.5t-66.5 19t-58 32t-45 36t-29.5 29 l-10 12l422 411q-36 12 -93.5 39.5t-75.5 34.5l-306 116l-21 412q4 1 10.5 3.5t26.5 6.5t39.5 5t46 -4t48.5 -17t44.5 -37.5t37.5 -62.5q21 -63 42 -105q166 -36 458.5 -128t470.5 -157q111 -42 206 -103t147.5 -125t36.5 -110q-36 -69 -196 -67t-331 67zM1145 249 q-74 8 -103.5 52t-12.5 96l243 -53q-9 -41 -41.5 -68t-85.5 -27zM1103 -194l-21 211l791 -19l792 19l-11 -211l-780 20z" />
<glyph unicode="d" horiz-adv-x="1448" d="M1540 891l-96 -126l-727 552l-717 -552l-97 126l814 659l329 -262l10 194l262 -10l-10 -387zM136 746l581 445l591 -435l-10 -630h165l-10 -174h-1453v145h146zM339 397l262 10v290h-271zM1053 601h-262l9 -485l243 10z" />
<glyph unicode="e" horiz-adv-x="1761" d="M901 -206q-200 0 -366 61.5t-271.5 165.5t-178 238.5t-86.5 283.5t3.5 297.5t92.5 283.5t180 238.5t265 165t350 61.5q187 -2 344.5 -64.5t259 -166.5t172.5 -239t86.5 -283t1 -296.5t-84.5 -282.5t-170.5 -237.5t-256 -164.5t-341.5 -61zM879 1467q-111 0 -167 -11 l23 -122l-255 -188l-222 11l-66 -100l44 -443l144 -177l-144 -200q227 -321 665 -321q132 0 246.5 37.5t198.5 101.5t147 151t100 184t50 202l-111 100l-155 55l-22 -33l55 -67l45 -11l22 -66l-144 -78l-100 189l-33 -78l78 -166l88 -22l-155 -89l-199 -277l-167 -11 l-33 166l22 244l-188 55l-66 155l33 145l177 77l177 -100l89 34l133 -34l33 178l-177 55v-111h-111l-11 122l-133 -33l11 100l-55 33l88 77l144 -77l45 100l110 44l78 -33l78 11l33 88q-190 133 -443 133z" />
<glyph unicode="f" horiz-adv-x="1595" d="M1427 257l-471 489l457 492l-23 -371l200 4l-40 647l-620 13l5 -202l342 36l-492 -486l-496 472l367 -23l-4 203l-640 -40l-12 -628l199 4l-35 347l471 -489l-458 -492l24 371l-201 -3l40 -648l619 -12l-3 201l-344 -36l494 486l494 -472l-366 24l4 -203l640 39l12 628 l-200 -4z" />
<glyph unicode="g" horiz-adv-x="1550" d="M783 -43q-324 0 -445 16q-159 20 -228 86q-69 64 -92 211q-17 117 -18 419v62q0 309 11 415q17 156 76 224t196 91q115 20 412 21h74q321 0 436 -14q159 -18 229 -79q69 -61 91 -201q19 -113 20 -407v-74q0 -316 -8 -413q-13 -165 -65.5 -236t-175.5 -97 q-108 -22 -384 -24h-129zM489 1086l11 -777l700 418z" />
<glyph unicode="h" horiz-adv-x="1213" d="M909 -89q-18 -86 -85 -116.5t-178 -6.5q-72 15 -253.5 60.5t-250.5 60.5q-99 21 -134.5 84t-16.5 154q21 103 59 267.5t79.5 339t77 321t66 270t31.5 127.5q23 98 72.5 136.5t131.5 21.5q355 -77 586 -132q173 -41 127 -249q-3 -15 -67.5 -281.5t-139 -583.5t-105.5 -473 zM436 -68q31 -7 56.5 7.5t36 40.5t10.5 54.5t-19 52.5t-52 31q-56 12 -89.5 -29t-19 -92t76.5 -65zM387 1291l-229 -1004l658 -151l261 1001z" />
<glyph unicode="i" horiz-adv-x="1309" d="M714 1283l422 -315l-681 -856q-5 -6 -15 -12t-18 -9l-8 -3l-424 -173l48 451q2 33 12 46zM122 83l262 97l-246 173zM790 1382l101 136q15 20 42 24q26 4 47 -11l328 -243q20 -15 24 -41q4 -25 -12 -46l-110 -140z" />
<glyph unicode="j" horiz-adv-x="455" d="M134 1257v209h180v-209h-180zM-94 -412l34 153q54 -14 85 -14q55 0 82 36.5t27 182.5v1116h180v-1120q0 -196 -51 -273q-65 -100 -216 -100q-73 0 -141 19z" />
<glyph unicode="k" horiz-adv-x="1405" d="M507 1208q-9 96 62 144.5t146 14t75 -138.5q0 -55 -19 -94.5t-47.5 -56.5t-63.5 -17t-66 16.5t-55 51t-32 80.5zM941 785q67 75 109.5 78.5t102.5 -58.5q60 -60 282 -312q-3 -4 -8.5 -10.5t-21 -20t-31.5 -20.5t-38.5 -3t-41.5 23q-9 9 -158 142.5t-195 180.5zM1052 543 q-107 -91 -220 -140t-204 -41q-164 0 -262 181q-85 150 -30 484l-242 232h-151q-12 24 -13 55.5t8 61t26.5 53.5t40 36t51.5 7t58 -32zM1153 412q86 0 146 -47.5t75.5 -116t4.5 -136.5t-67 -116t-139 -48q-106 0 -173.5 48t-79.5 116t6 136.5t80.5 116t146.5 47.5zM1163 80 q57 0 78 47.5t-5 95.5t-83 48q-58 0 -83 -48t1 -95.5t92 -47.5zM266 412q86 0 145 -47.5t73.5 -116t3 -136.5t-66.5 -116t-135 -48q-106 0 -173.5 48t-79.5 116t6 136.5t80.5 116t146.5 47.5zM276 80q57 0 78 47.5t-5 95.5t-83 48q-58 0 -83 -48t1 -95.5t92 -47.5z" />
<glyph unicode="l" horiz-adv-x="722" d="M611 353l-48 -10l59 -362l-12 -3t-27 -4q-30 -2 -47 3q-16 3 -31 20q-20 19 -21 43q-2 22 -17 126q-13 89 -29 167h-42l-30 117h-29l-29 -117h-39q-10 -109 -39 -283q-14 -81 -113 -65q-25 4 -25 6l48 362l-47 9l58 264l401 -10zM718 636q8 -83 -55 -89l-23 1 q-49 147 -88 254l-29 -10l9 -78h-371l39 88l-29 10q-49 -107 -98 -264q-4 -1 -10.5 -2.5t-22 0t-26.5 8.5t-17.5 28t-1.5 54q4 34 12.5 56.5t24.5 63t31 95.5l-29 19l108 206q17 13 44 20t45 8l18 1q28 -28 72.5 -39t86.5 -3t66 32q9 1 23 2t45.5 -3.5t48.5 -17.5l98 -215 l-30 -10q11 -59 33 -125t26 -90zM493 1310q-2 -12 -9 -19q-7 -40 -28 -69.5t-47 -43.5t-55 -13t-53.5 16t-41.5 48.5t-20 80.5l-39 88l49 29l10 49h58l79 20l58 -39l39 -10l10 -29l29 -40z" />
<glyph unicode="m" horiz-adv-x="772" d="M597 726l28 -750q-6 -2 -15 -4.5t-34 -4.5t-44 2q-19 5 -36 23q-16 17 -19 49q-4 45 -23 177q-16 118 -35 241l-16 109l-11 63q-59 -289 -100 -581q-6 -36 -24 -57t-40 -25t-43 -3q-23 1 -36 6l-15 5l47 750q-7 5 -18 14q-11 10 -39 38q-27 28 -46 56q-20 28 -32 64 q-11 34 -4 68q8 45 22 113q14 67 23 111l10 45q49 49 185 83l102 -148l111 148q110 -14 185 -74q28 -176 47 -269q17 -89 -104 -222zM245 1559q1 100 76 133q76 33 145 -13q69 -47 57 -139q-6 -44 -27 -74q-22 -31 -53 -46.5t-65.5 -15.5t-64.5 16q-29 15 -48 52 q-19 36 -20 87z" />
<glyph unicode="n" horiz-adv-x="1301" d="M600 795q-40 -51 -46 -46l27 -750q-5 -2 -14.5 -4.5t-34 -4.5t-43.5 2.5t-36 22t-20 49.5q-4 45 -22.5 177t-34.5 241l-17 109h-46q-46 -389 -65 -527q-5 -37 -23 -58t-40.5 -25t-43.5 -2.5t-36 6.5l-14 5l46 749q-7 6 -18 15t-38 37.5t-46.5 56t-32 64.5t-4.5 68 q13 45 26.5 112t21.5 112l8 44q26 34 76 55t109 29l111 -148l102 148q69 -12 139 -47q-37 -203 -56 -314q-11 -81 65 -176zM489 1554q-7 -42 -31 -74t-55.5 -47t-66.5 -15t-63.5 15.5t-46 51.5t-15.5 87q0 96 75.5 127.5t145.5 -13.5t57 -132zM1174 739l28 -749 q-6 -2 -15.5 -4.5t-34 -4.5t-43.5 2t-36 22t-20 49q-4 46 -22.5 177.5t-34.5 241.5l-17 109h-46q-46 -389 -65 -518q-5 -37 -23 -58t-40 -25t-43.5 -2.5t-36.5 6.5l-14 5l46 749q-6 6 -17.5 15t-38.5 37.5t-46.5 56t-31.5 64.5t-5 68q9 45 22.5 112t23.5 112l10 44 q49 50 185 84l102 -148l111 148q110 -14 185 -74q28 -176 46 -269q16 -78 -106 -223zM831 1554q-13 87 57 132t145.5 13.5t75.5 -127.5q0 -51 -19.5 -87t-48.5 -51.5t-64 -15.5t-65.5 15t-53 47t-27.5 74z" />
<glyph unicode="o" horiz-adv-x="1659" d="M697 1585q0 99 75 133q63 29 130 -3q70 -33 79 -105q3 -21 0 -44q-7 -44 -30.5 -77t-55 -48.5t-66.5 -15.5t-64.5 16t-48.5 53.5t-19 90.5zM1045 742l28 -761q-3 -1 -8 -2.5t-19.5 -4t-28 -2.5t-30 3.5t-28.5 12t-21.5 25.5t-11.5 41q-4 45 -22.5 178t-34.5 243l-16 111 h-46q-46 -395 -64 -532q-5 -38 -23 -60t-40 -25.5t-43 -1.5t-36 8l-14 6l46 761q-7 5 -18 14t-38 37t-46 55.5t-31 64t-5 67.5l55 275q20 33 69.5 54t114.5 28l110 -156l110 156q108 -13 183 -73q27 -174 46 -275q15 -83 -109 -218zM1485 1539q0 -51 -19 -86.5t-48 -51 t-63.5 -15.5t-65 15t-52.5 46.5t-27 72.5q-13 91 56.5 137.5t144 13t74.5 -131.5zM1687 952q5 -25 -6.5 -59t-31 -64t-40.5 -55t-36 -40q-14 -14 -15 -11l28 -742q-6 -2 -15 -4.5t-33.5 -4.5t-43.5 2.5t-35.5 22t-19.5 48.5q-4 45 -22 175.5t-35 238.5l-16 108h-46 q-46 -385 -64 -513q-12 -82 -82 -82l-37 586l9 147q120 120 110 220q0 64 -55 366q9 0 23 5t23 5l110 -156l101 146q108 -13 183 -73q27 -174 46 -266zM532 512l-46 -540q-33 0 -54.5 15t-27.5 58q-4 45 -22.5 175.5t-34.5 238.5l-17 108h-45q-46 -385 -64 -513 q-6 -36 -23.5 -56.5t-39.5 -24.5t-43.5 -3t-35.5 6l-14 5l46 742q-7 5 -18 13.5t-38 35t-46 52.5t-31.5 62t-4.5 66q12 45 26 111.5t21 110.5l8 44q26 33 75.5 54t107.5 29l101 -147l110 147q18 0 55 -19q-55 -275 -64 -348q-20 -90 110 -220zM450 1520q-5 -41 -27 -72.5 t-52.5 -46.5t-65 -15t-63.5 15.5t-48 51t-19 86.5q0 94 74.5 125.5t144 -13t56.5 -131.5z" />
<glyph unicode="p" d="M135 -407v1469h164v-138q58 81 131 121.5t177 40.5q136 0 240 -70t157 -197.5t53 -279.5q0 -163 -58.5 -293.5t-170 -200t-234.5 -69.5q-90 0 -161.5 38t-117.5 96v-517h-180zM298 525q0 -205 83 -303t201 -98q120 0 205.5 101.5t85.5 314.5q0 203 -83.5 304t-199.5 101 q-115 0 -203.5 -107.5t-88.5 -312.5z" />
<glyph unicode="q" d="M812 -407v520q-42 -59 -117.5 -98t-160.5 -39q-189 0 -325.5 151t-136.5 414q0 160 55.5 287t161 192.5t231.5 65.5q197 0 310 -166v142h162v-1469h-180zM257 534q0 -205 86 -307.5t206 -102.5q115 0 198 97.5t83 296.5q0 212 -87.5 319t-205.5 107q-117 0 -198.5 -99.5 t-81.5 -310.5z" />
<glyph unicode="r" horiz-adv-x="682" d="M133 0v1062h162v-161q62 113 114.5 149t115.5 36q91 0 185 -58l-62 -167q-66 39 -132 39q-59 0 -106 -35.5t-67 -98.5q-30 -96 -30 -210v-556h-180z" />
<glyph unicode="s" horiz-adv-x="1532" />
<glyph unicode="t" horiz-adv-x="1786" d="M892 1590q127 0 240 -32q117 -33 216 -91t183 -141q83 -83 142 -182q57 -99 90 -217q33 -117 33 -240t-33 -239q-33 -118 -90 -217q-59 -99 -142 -182t-182 -141t-216 -91q-117 -32 -240 -32t-240 32q-118 33 -216 91q-100 58 -183 141t-141 182t-91 217q-32 116 -32 239 q0 124 32 240q33 118 91 217t141 182t183 141q98 58 216 91q117 32 239 32zM892 1455q-156 0 -298 -60q-138 -58 -244 -164q-105 -104 -165 -244q-60 -139 -60 -299q-1 -156 60 -299q58 -138 165 -244q103 -104 244 -165q138 -60 298 -60q156 -1 299 60q138 58 244 165 q106 105 165 244q60 141 60 298q0 156 -60 299q-58 138 -165 244q-106 106 -244 165q-142 60 -299 60zM1373 493q2 -30 -17 -68q-32 -62 -89 -62q-24 0 -41 10q-10 6 -119 61q-102 52 -196 100q-9 -1 -19 -1q-64 0 -109 45q-46 46 -46 110q1 54 33 95v496q0 40 23 68 q24 28 80 28h7q98 0 96 -96l-6 -457q17 -9 32 -25q43 -42 45 -101l273 -133q51 -26 53 -70zM922 776q-13 4 -29 4q-38 0 -66 -27q-27 -28 -27 -66q0 -37 27 -65q27 -27 65 -27q39 0 66 27q27 28 27 66q0 13 -3 24q-3 10 -8 19h1q-3 5 -6 9v0q-1 1 -1 2q-5 5 -10 11 q-16 16 -36 23z" />
<glyph unicode="u" horiz-adv-x="1719" d="M556 1274zM958 953q36 0 36 -62q0 -30 -8 -46t-27 -16h-199q-36 0 -36 62t36 62h198zM1352 953q37 0 37 -62q0 -30 -8 -46t-28 -16h-199q-35 0 -35 62t35 62h198zM562 715q20 0 29 -17q8 -18 8 -45q0 -29 -8 -45q-8 -17 -28 -17h-198q-36 0 -36 62t36 62h197zM958 715 q36 0 36 -62q0 -29 -8 -45.5t-27 -16.5h-199q-36 0 -36 62t36 62h198zM1352 715q20 0 28 -17q9 -18 9 -45q0 -29 -8 -45q-8 -17 -28 -17h-199q-35 0 -35 62t35 62h198zM562 477q20 0 29 -17q8 -17 8 -44q0 -30 -8 -46t-28 -16h-198q-36 0 -36 61.5t36 61.5h197zM958 477 q36 0 36 -61q0 -30 -8 -46t-27 -16h-199q-36 0 -36 61.5t36 61.5h198zM1352 477q20 0 28 -17q9 -17 9 -44q0 -30 -8 -46t-28 -16h-199q-35 0 -35 62q0 61 35 61h198zM1656 1468q26 0 43.5 -17.5t17.5 -43.5v-1353q0 -26 -17.5 -43.5t-43.5 -17.5h-1595q-25 0 -43 17.5 t-18 42.5v1354q0 26 17.5 43.5t43.5 17.5h210v-118q0 -34 32.5 -34t32.5 34v160v10v22q0 38 73 38q74 0 74 -38v-74h714v-119q0 -33 32.5 -33t32.5 34v160q0 8 -2 13v19q0 38 74 38t74 -38v-74h248zM1599 163v1002h-1481v-1002h1481z" />
<glyph unicode="v" horiz-adv-x="1024" d="M430 0l-404 1062h190l228 -636q37 -103 68 -214q24 84 67 202l236 648h185l-402 -1062h-168z" />
<glyph unicode="w" horiz-adv-x="1479" d="M331 0l-325 1062h186l169 -613l63 -228q4 17 55 219l169 622h185l159 -616l53 -203l61 205l182 614h175l-332 -1062h-187l-169 636l-41 181l-215 -817h-188z" />
<glyph unicode="x" horiz-adv-x="1024" d="M15 0l388 552l-359 510h225l163 -249q46 -71 74 -119q44 66 81 117l179 251h215l-367 -500l395 -562h-221l-218 330l-58 89l-279 -419h-218z" />
<glyph unicode="y" horiz-adv-x="1024" d="M127 -409l-20 169q59 -16 103 -16q60 0 96 20t59 56q17 27 55 134q5 15 16 44l-403 1064h194l221 -615q43 -117 77 -246q31 124 74 242l227 619h180l-404 -1080q-65 -175 -101 -241q-48 -89 -110 -130.5t-148 -41.5q-52 0 -116 22z" />
<glyph unicode="z" horiz-adv-x="1024" d="M40 0v146l676 776q-115 -6 -203 -6h-433v146h868v-119l-575 -674l-111 -123q121 9 227 9h491v-155h-940z" />
<glyph unicode="{" horiz-adv-x="684" d="M57 612q77 2 125.5 41.5t64.5 108.5t17 236t6 220q9 84 33.5 135t60.5 81.5t92 46.5q38 10 124 10h56v-157h-31q-104 0 -138 -37.5t-34 -167.5q0 -262 -11 -331q-18 -107 -61.5 -165t-136.5 -103q110 -46 159.5 -140.5t49.5 -309.5q0 -195 4 -232q8 -68 40.5 -95 t127.5 -27h31v-157h-56q-98 0 -142 16q-64 23 -106 74.5t-54.5 130.5t-13.5 259t-17 249t-64.5 109t-125.5 42v163z" />
<glyph unicode="|" horiz-adv-x="532" d="M188 -431v1922h157v-1922h-157z" />
<glyph unicode="}" horiz-adv-x="684" d="M626 612v-163q-77 -2 -125.5 -42t-64.5 -108.5t-17 -235.5t-6 -220q-9 -85 -33.5 -135.5t-60.5 -81t-92 -46.5q-38 -11 -124 -11h-56v157h31q104 0 138 37.5t34 168.5q0 250 9 317q16 111 64 177.5t136 103.5q-115 55 -162 145.5t-47 305.5q0 195 -5 233 q-7 67 -39.5 93.5t-127.5 26.5h-31v157h56q98 0 142 -16q64 -22 106 -74t54.5 -131t13.5 -259t17 -248.5t64.5 -108.5t125.5 -42z" />
<glyph unicode="~" horiz-adv-x="1196" d="M87 557v205q106 120 278 120q60 0 126 -17.5t188 -69.5q69 -29 103.5 -38t69.5 -9q65 0 134.5 39t123.5 98v-212q-64 -60 -129.5 -87t-147.5 -27q-60 0 -114.5 14t-173 67t-197.5 53q-64 0 -120.5 -27.5t-140.5 -108.5z" />
<glyph unicode="&#xa2;" d="M744 894l-222 -766q33 -9 61 -9q104 0 179.5 71t92.5 199l179 -20q-33 -185 -156.5 -291t-291.5 -106q-49 0 -103 14l-118 -395l-112 32l115 398q-115 55 -188 183.5t-73 321.5q0 178 58.5 305.5t175 191.5t237.5 64q36 0 100 -8l113 387l110 -32l-112 -387 q99 -43 152 -115.5t74 -181.5l-175 -27q-26 112 -96 171zM638 940q-32 3 -50 3q-82 0 -153.5 -45.5t-107 -141t-35.5 -221.5q0 -132 32 -223t91 -135z" />
<glyph unicode="&#xa3;" d="M396 809h315v-148h-284q19 -44 19 -88q0 -87 -41.5 -184t-136.5 -198q79 22 144 22q83 0 187 -25q172 -41 233 -41q74 0 192 56l58 -165q-92 -39 -142.5 -51t-100.5 -12q-42 0 -85 8q-27 5 -129.5 36.5t-132.5 37.5q-47 8 -94 8q-72 0 -153.5 -25t-148.5 -68l-69 173 q96 53 163 151.5t67 240.5q0 61 -17 124h-196v148h154q-33 112 -42 163.5t-9 100.5q0 208 154 325q124 93 300 93q181 0 298.5 -99.5t144.5 -279.5l-179 -27q-15 120 -89.5 189t-178.5 69q-111 0 -184.5 -71.5t-73.5 -172.5q0 -111 57 -290z" />
<glyph unicode="&#xa5;" d="M477 0v325h-415v139h415v143h-415v148h341l-406 711h200l290 -516q49 -88 76 -154q23 53 82 163l274 507h214l-405 -711h341v-148h-412v-143h412v-139h-412v-325h-180z" />
<glyph unicode="&#xa7;" d="M143 -70l181 26q28 -130 89 -182.5t166 -52.5q102 0 159.5 52t57.5 122q0 51 -36 94q-62 75 -340 245q-148 91 -206.5 142.5t-95.5 121.5t-37 146q0 96 60 174t165 109q-71 68 -100 125.5t-29 122.5q0 128 100 222t265 94q187 0 292 -89t126 -258l-187 -19 q-21 122 -73.5 170t-141.5 48q-92 0 -148.5 -49.5t-56.5 -109.5q0 -52 36 -96q56 -68 306 -220q157 -96 212 -141q71 -60 104.5 -124t33.5 -139q0 -113 -73 -193q-42 -46 -154 -93q80 -61 119.5 -131t39.5 -150q0 -88 -50 -166.5t-144 -120t-203 -41.5q-191 0 -303 95.5 t-134 265.5zM728 244q74 38 110.5 88.5t36.5 98.5q0 57 -52 120q-53 63 -225 169q-137 84 -204 138q-81 -46 -115.5 -92t-34.5 -102q0 -63 46 -120t207 -152q134 -79 231 -148z" />
<glyph unicode="&#xa8;" horiz-adv-x="682" d="M61 1270v205h188v-205h-188zM434 1270v205h188v-205h-188z" />
<glyph unicode="&#xa9;" horiz-adv-x="1509" d="M758 1491q190 0 371 -97.5t282 -279t101 -378.5q0 -195 -99.5 -375t-279 -279.5t-375.5 -99.5t-375.5 99.5t-279.5 279.5t-100 375q0 197 101.5 378.5t282.5 279t371 97.5zM758 1366q-159 0 -309.5 -81.5t-235.5 -233t-85 -315.5q0 -163 83.5 -312.5t233.5 -233 t313 -83.5t313 83.5t233 233t83 312.5q0 164 -84.5 315.5t-235.5 233t-309 81.5zM1000 614l123 -36q-30 -125 -127.5 -199.5t-236.5 -74.5q-176 0 -286 114t-110 316q0 132 50 229.5t142.5 147t211.5 49.5q133 0 221 -63.5t120 -172.5l-119 -29q-30 74 -88.5 113.5 t-137.5 39.5q-115 0 -189.5 -82t-74.5 -235t70.5 -231.5t182.5 -78.5q90 0 158 52t90 141z" />
<glyph unicode="&#xab;" d="M340 528l259 -456h-146l-319 456l319 456h148zM727 528l264 -456h-152l-313 456l313 456h152z" />
<glyph unicode="&#xae;" horiz-adv-x="1509" d="M758 1491q190 0 371 -97.5t282 -279t101 -378.5q0 -195 -99.5 -375t-279 -279.5t-375.5 -99.5t-375.5 99.5t-279.5 279.5t-100 375q0 197 101.5 378.5t282.5 279t371 97.5zM758 1366q-159 0 -309.5 -81.5t-235.5 -233t-85 -315.5q0 -163 83.5 -312.5t233.5 -233 t313 -83.5t313 83.5t233 233t83 312.5q0 164 -84.5 315.5t-235.5 233t-309 81.5zM427 319v812h279q143 0 207 -22.5t102 -78.5t38 -119q0 -89 -63.5 -155t-168.5 -74q43 -18 69 -43q49 -48 120 -161l99 -159h-160l-72 128q-85 151 -137 189q-36 28 -105 28h-77v-345h-131z M558 776h159q114 0 155.5 34t41.5 90q0 36 -20 64.5t-55.5 42.5t-131.5 14h-149v-245z" />
<glyph unicode="&#xb0;" horiz-adv-x="819" d="M128 1214q0 115 81.5 196t195.5 81q116 0 197 -81t81 -196t-81.5 -196.5t-196.5 -81.5q-114 0 -195.5 81t-81.5 197zM237 1214q0 -70 49.5 -119.5t119.5 -49.5q69 0 118.5 49.5t49.5 119.5t-49.5 119.5t-118.5 49.5q-70 0 -119.5 -49.5t-49.5 -119.5z" />
<glyph unicode="&#xb4;" horiz-adv-x="682" d="M222 1194l133 280h236l-220 -280h-149z" />
<glyph unicode="&#xb6;" horiz-adv-x="1100" d="M405 -407v1045q-187 10 -295.5 121.5t-108.5 284.5q0 193 120.5 307.5t352.5 114.5h633v-173h-144v-1700h-170v1700h-223v-1700h-165z" />
<glyph unicode="&#xb7;" horiz-adv-x="569" d="M185 619v205h205v-205h-205z" />
<glyph unicode="&#xb8;" horiz-adv-x="682" d="M216 -154l52 177h134l-33 -107q85 -10 128 -52.5t43 -94.5q0 -75 -72 -132.5t-217 -57.5q-82 0 -144 12l11 117q64 -4 94 -4q94 0 132 26q29 20 29 49q0 18 -11.5 32t-42.5 24t-103 11z" />
<glyph unicode="&#xbb;" d="M791 528l-261 456h148l319 -456l-319 -456h-147zM404 528l-264 456h151l314 -456l-314 -456h-151z" />
<glyph unicode="&#x131;" horiz-adv-x="569" d="M198 0v1062h180v-1062h-180z" />
<glyph unicode="&#x192;" d="M46 -405l35 155q101 -22 152 -22q54 0 83 28t45 124l177 1042h-201l24 140h201l24 133q22 120 45 165q31 62 88.5 97t150.5 35q80 0 215 -38l-35 -153q-103 24 -154 24q-56 0 -84 -27.5t-47 -132.5l-19 -103h204l-25 -140h-204l-191 -1092q-26 -148 -87 -204.5 t-173 -56.5q-94 0 -224 26z" />
<glyph unicode="&#x2c6;" horiz-adv-x="682" d="M344 1364l-113 -170h-206l216 280h192l225 -280h-204z" />
<glyph unicode="&#x2d8;" horiz-adv-x="682" d="M514 1464h123q-15 -125 -91.5 -192t-203.5 -67q-128 0 -204.5 66.5t-91.5 192.5h123q14 -68 55.5 -101.5t111.5 -33.5q81 0 122.5 32.5t55.5 102.5z" />
<glyph unicode="&#x2da;" horiz-adv-x="682" d="M162 1338q0 73 53.5 126t126.5 53q74 0 127 -53.5t53 -129.5q0 -77 -53 -130t-126 -53q-75 0 -128 53.5t-53 133.5zM238 1337q0 -47 31.5 -79t74.5 -32t74.5 32t31.5 77t-31 77t-75 32q-43 0 -74.5 -31.5t-31.5 -75.5z" />
<glyph unicode="&#x2dc;" horiz-adv-x="682" d="M7 1219q-1 104 57 166q57 62 146 62q62 0 169 -54q59 -30 94 -30q32 0 49 17.5t24 69.5h130q-3 -114 -57.5 -171t-138.5 -57q-63 0 -166 56q-67 36 -98 36q-34 0 -55 -24q-22 -24 -21 -71h-133z" />
<glyph unicode="&#x401;" horiz-adv-x="1367" d="M374 1002q-23 -27 -55 -16q-10 3 -17 9q-17 14 -19 35.5t12 37.5q14 17 35.5 19t37.5 -12q17 -14 18.5 -35t-12.5 -38zM440 694q-9 -16 -26 -22.5t-35 -0.5q-7 2 -9 3q-19 11 -24.5 31.5t4.5 39.5q11 19 32 25t39 -5q19 -11 24.5 -31t-5.5 -40zM490 925 q-19 11 -24.5 31.5t5.5 39.5q10 18 31 24t39 -4q19 -11 25 -31.5t-5 -38.5v-1q-10 -17 -27 -23.5t-35 0.5q-5 1 -9 3zM542 178q21 -6 30.5 -25.5t2.5 -38.5q-7 -21 -26 -31t-39.5 -3t-30 26t-2.5 40q6 20 25.5 29.5t39.5 2.5zM324 514q20 -9 27.5 -28.5t-1.5 -38.5v-1 q-8 -18 -26 -26t-37 -2q-1 0 -2.5 0.5t-2.5 1.5q-19 8 -27 28t1 40q9 19 28.5 27t39.5 -1zM573 451q21 -7 30.5 -26t2.5 -40v-1q-7 -20 -26 -29.5t-39.5 -2.5t-30 26t-2.5 39q6 20 25.5 30.5t39.5 3.5zM9 583q14 17 35.5 19t38.5 -12q16 -13 18 -34.5t-12 -37.5l-1 -1 q-22 -27 -56 -16q-9 3 -17 9q-16 14 -18 35.5t12 37.5zM-68 322q14 17 35.5 18.5t38.5 -12.5q17 -13 19 -34t-12 -37l-1 -1q-23 -27 -56 -16q-10 3 -17 9q-17 14 -19 35.5t12 37.5zM214 765q-10 -15 -26.5 -20t-32.5 1q-3 1 -13 7q-17 12 -20.5 33t8.5 39q12 17 33 21t39 -8 q18 -13 21.5 -34t-8.5 -38zM275 241q19 -11 24.5 -31.5t-5.5 -39.5l-1 -1q-9 -16 -26 -22.5t-34 -0.5l-10 4q-18 11 -24 32t4.5 39t31.5 24t40 -4zM1049 507q-16 5 -26 19t-10 31q1 22 16.5 36.5t37.5 13.5q21 0 36 -15t14 -37v-1q-1 -22 -16.5 -36.5t-36.5 -13.5 q-8 0 -15 3zM1049 271q-14 5 -24 17.5t-12 28.5q-1 21 13 37.5t36 17.5q22 2 38 -12t17 -35v-1q1 -22 -13 -38t-36 -17q-11 0 -19 2zM1050 739q-15 5 -25 17t-11 28q-1 21 13 37t36 18q21 2 37.5 -12.5t17.5 -35.5v-1q1 -21 -13 -37t-36 -17q-11 0 -19 3zM635 706 q21 -6 30 -25t2 -40v-1q-7 -20 -26 -30t-39 -3t-30 26t-3 40q7 20 26 30t40 3zM1077 109q21 2 37 -12t18 -35v-1q1 -22 -13 -38t-36 -17q-11 0 -19 2q-15 5 -25 17.5t-11 28.5q-1 22 13 38t36 17zM896 898q20 -3 33.5 -19.5t11.5 -37.5v-1q-3 -21 -20 -34t-38 -10 q-3 0 -10 2q-17 5 -27 20.5t-8 34.5q3 21 20 34.5t38 10.5zM1058 1349q77 -71 107.5 -98.5t65.5 -69.5t41.5 -54.5t9.5 -47t-3.5 -54t-23.5 -69.5l-961 319q13 38 18 54.5t20 40.5t20 31t33 20.5t42.5 16.5t64 11t83 11t112.5 11l82 -27l65 198h231l-89 -266zM751 893 q-6 -21 -25.5 -30.5t-39.5 -2.5t-30 26t-3 39q7 21 26 30.5t40 2.5q20 -6 29.5 -25t2.5 -40zM809 129q21 -2 34.5 -19t10.5 -38q-3 -22 -20 -35.5t-38 -10.5q-3 0 -10 2q-17 6 -27 21t-8 34q3 22 20 35.5t38 10.5zM848 649q22 -2 35 -18.5t10 -38.5v-1q-3 -21 -20 -34 t-38 -10q-3 0 -10 2q-17 5 -27 20.5t-7 34.5q2 21 19 34.5t38 10.5zM823 396q21 -4 32.5 -22t6.5 -39v-1q-5 -21 -22.5 -32.5t-38.5 -6.5q-1 0 -2.5 0.5t-2.5 1.5q-19 6 -29 23.5t-5 36.5q4 21 22 32.5t39 6.5zM411 1556v205h188v-205h-188zM784 1556v205h188v-205h-188z " />
<glyph unicode="&#x402;" horiz-adv-x="1771" d="M50 1466h1170v-173h-488v-456q253 99 440 99q233 0 375 -141t142 -344q0 -178 -116.5 -327t-341.5 -149q-104 0 -235 33l31 164q76 -37 158 -37q151 0 228.5 88t77.5 222q0 142 -89.5 235.5t-277.5 93.5q-162 0 -392 -94v-680h-194v1293h-488v173z" />
<glyph unicode="&#x403;" horiz-adv-x="1109" d="M161 1466h948v-173h-754v-1293h-194v1466zM473 1556l133 280h236l-220 -280h-149z" />
<glyph unicode="&#x404;" horiz-adv-x="1472" d="M857 843v-173h-545q11 -247 137 -389.5t323 -142.5q350 0 439 372l187 -49q-127 -486 -612 -486q-347 0 -516.5 223.5t-158.5 550.5q0 200 75.5 365t231.5 271t372 106q228 0 381.5 -113t207.5 -314l-190 -50q-83 307 -400 307q-214 0 -335.5 -129t-133.5 -349h537z" />
<glyph unicode="&#x405;" horiz-adv-x="1494" d="M253 93h1142l-76 1011h-146q-7 -62 -16 -111q-4 -24 -8 -47q0 -1 1 -2q27 -28 27 -68t-26.5 -67.5t-64 -27.5t-64 28t-26.5 67q0 40 26 68q16 17 37 23q14 72 22 137h-483q-8 -70 -13 -150q8 -5 15 -13q26 -28 26 -67t-26.5 -67t-64 -28t-64 28t-26.5 67.5t27 66.5 q10 11 22 18q4 77 12 145h-217zM1405 1195l89 -1193h-1279l-94 58l-141 32l142 1103h63h30h85q-7 117 13 209q22 101 74 161q60 70 156 76q64 3 122 -12q-3 -2 -8 -5.5t-7 -5.5q-30 -27 -59 -71q-35 3 -43 2q-56 -2 -93 -45q-39 -44 -55 -129q-15 -79 -8 -180h127 q12 72 28 130q48 172 137 254q92 84 225 77q123 -7 193 -100q36 -49 55.5 -120.5t22.5 -142.5q2 -47 0 -98h225zM1086 831q-7 0 -11 1q-18 4 -28 20t-6 35q6 23 11 45q-5 -4 -9 -8q-18 -20 -19 -48q0 -27 18.5 -47t43.5 -20q26 0 44 20t18 47q0 18 -7 32l-10 -42 q-3 -15 -16 -25t-29 -10zM612 1195h476q1 35 0 67q-3 163 -60 239q-43 58 -125 64q-95 5 -158 -53q-92 -86 -133 -317zM583 918q-1 -21 -2 -43q0 -20 -14 -33.5t-33 -10.5q-19 1 -32 15t-12 32l2 44v-1q-18 -19 -18 -46.5t18 -47t44 -19.5q25 0 43.5 19.5t18.5 46.5 q0 25 -15 44z" />
<glyph unicode="&#x406;" horiz-adv-x="1301" d="M394 1513q-12 102 60 156q61 46 134 29q79 -18 107 -98q12 -34 12 -76q0 -54 -16 -94.5t-41.5 -60.5t-57 -28.5t-64 2t-60.5 31t-48 57.5t-26 82zM491.5 806q-91.5 0 -169.5 -45t-123 -123t-45 -169.5t45 -169.5t123 -123t169.5 -45t169.5 45t123 123t45 169.5t-45 169.5 t-123 123t-169.5 45zM670 947l20 -8q95 -41 163 -109q22 -22 41 -47q118 37 213 37q116 0 113 -321q-1 -123 -16 -236q83 -7 113 -18q22 -8 23 -34t-9 -47l-10 -22h-304q2 15 5.5 39.5t9.5 90.5t6.5 120t-8 106t-28.5 70q-6 8 -11 10q11 -54 11 -110q0 -103 -40.5 -198 t-109 -163.5t-163 -109t-198 -40.5t-198.5 40.5t-163 109t-109 163.5t-41 198.5t40.5 198t109.5 163.5q56 57 131 94q2 65 12 120q12 71 38.5 128t72.5 88.5t108 31.5q40 0 75.5 -44t57 -106t34.5 -122q9 -42 11 -73z" />
<glyph unicode="&#x407;" horiz-adv-x="1301" d="M394 1513q-12 102 60 156q61 46 134 29q79 -18 107 -98q12 -34 12 -76q0 -54 -16 -94.5t-41.5 -60.5t-57 -28.5t-64 2t-60.5 31t-48 57.5t-26 82zM491.5 806q-91.5 0 -169.5 -45t-123 -123t-45 -169.5t45 -169.5t123 -123t169.5 -45t169.5 45t123 123t45 169.5t-45 169.5 t-123 123t-169.5 45zM670 947l20 -8q95 -41 163 -109q22 -22 41 -47q118 37 213 37q116 0 113 -321q-1 -123 -16 -236q83 -7 113 -18q22 -8 23 -34t-9 -47l-10 -22h-304q2 15 5.5 39.5t9.5 90.5t6.5 120t-8 106t-28.5 70q-6 8 -11 10q11 -54 11 -110q0 -103 -40.5 -198 t-109 -163.5t-163 -109t-198 -40.5t-198.5 40.5t-163 109t-109 163.5t-41 198.5t40.5 198t109.5 163.5q56 57 131 94q2 65 12 120q12 71 38.5 128t72.5 88.5t108 31.5q40 0 75.5 -44t57 -106t34.5 -122q9 -42 11 -73zM4 1556v205h188v-205h-188zM377 1556v205h188v-205h-188 z" />
<glyph unicode="&#x408;" horiz-adv-x="1684" d="M1634 1054q20 0 34 -14.5t14 -34.5v-752q0 -20 -14.5 -35t-34.5 -15h-166v-195q0 -21 -14 -35q-15 -14 -35 -14t-35 14l-230 230h-433q-20 0 -34.5 15t-14.5 35v172l625 36q51 4 78.5 11t44 25t21 43.5t4.5 72.5l-11 441h201zM1296 564l-767 -47l-230 -230 q-14 -14 -34.5 -14t-35.5 14q-14 15 -14 35v195h-165q-21 0 -35.5 15t-14.5 35v851q0 20 14.5 34.5t35.5 14.5h1235q20 0 34.5 -14.5t14.5 -34.5l12 -804q0 -21 -15 -35.5t-35 -14.5zM247 1269q-20 0 -34.5 -14.5t-14.5 -35t14.5 -35t34.5 -14.5h501q21 0 35.5 14.5t14.5 35 t-14.5 35t-35.5 14.5h-501zM247 1072q-20 0 -34.5 -14.5t-14.5 -35t14.5 -35t34.5 -14.5h842q20 0 34.5 14.5t14.5 35t-14.5 35t-34.5 14.5h-842zM247 776h657q21 0 35.5 15t14.5 35t-14.5 35t-35.5 15h-657q-20 0 -34.5 -15t-14.5 -35t14.5 -35t34.5 -15z" />
<glyph unicode="&#x409;" horiz-adv-x="2165" d="M1178 1466v-626h350q243 0 353 -55.5t159 -154.5t49 -203q0 -137 -70.5 -243.5t-171 -145t-290.5 -38.5h-573v1293h-530v-755q0 -230 -21.5 -337t-90.5 -166.5t-175 -59.5q-64 0 -154 24l33 172q48 -20 82 -20q66 0 99 49.5t33 233.5v1032h918zM1178 165h388 q106 0 167 20.5t104.5 80t43.5 155.5q0 91 -46.5 152.5t-125 80.5t-271.5 19h-260v-508z" />
<glyph unicode="&#x40a;" horiz-adv-x="2069" d="M1082 1466v-626h326q209 0 325.5 -35t188 -138t71.5 -240q0 -143 -75.5 -251t-176 -142t-292.5 -34h-561v673h-530v-673h-194v1466h194v-626h530v626h194zM1082 165h363q124 0 185.5 18t108 78.5t46.5 159.5q0 85 -41 146t-124.5 83.5t-301.5 22.5h-236v-508z" />
<glyph unicode="&#x40b;" horiz-adv-x="1749" d="M49 1466h1173v-173h-489v-451q273 94 437 94q159 0 277 -64.5t163.5 -176.5t45.5 -309v-386h-194v379q0 144 -27 223.5t-98.5 124.5t-177.5 45q-161 0 -426 -92v-680h-194v1293h-490v173z" />
<glyph unicode="&#x40c;" horiz-adv-x="1193" d="M161 1466h194v-642q133 0 187 51.5t138 247.5q61 144 100.5 203.5t112.5 100t161 40.5q112 0 118 -2v-168q-10 0 -39 1q-32 1 -39 1q-93 0 -138 -45q-46 -45 -105 -192q-74 -186 -125 -234.5t-122 -77.5q142 -39 280 -262l302 -488h-241l-245 398q-101 165 -169 226.5 t-176 61.5v-686h-194v1466zM525 1556l133 280h236l-220 -280h-149z" />
<glyph unicode="&#x40e;" horiz-adv-x="1301" d="M10 1466h196l478 -898l418 898h193l-550 -1140q-103 -214 -169 -280t-189 -66q-75 0 -184 35v166q78 -45 165 -45q71 0 122.5 45.5t113.5 207.5zM870 1815h123q-15 -125 -91.5 -192t-203.5 -67q-128 0 -204.5 66.5t-91.5 192.5h123q14 -68 55.5 -101.5t111.5 -33.5 q81 0 122.5 32.5t55.5 102.5z" />
<glyph unicode="&#x40f;" horiz-adv-x="1472" d="M823 0v-407h-173v407h-490v1466h194v-1293h764v1293h195v-1466h-490z" />
<glyph unicode="&#x410;" horiz-adv-x="1490" d="M1170 1746q89 0 159 -36q70 -37 106 -95q36 -59 53 -129.5t0 -141.5q-16 -70 -52 -129q-36 -60 -104 -95q-74 -39 -156 -37q-14 0 -40 1l50 92q53 3 95 25t68 55q26 34 39 77q14 42 13 86t-17 86q-15 42 -43 74q-28 33 -73 53q-48 20 -101 20q-95 -1 -156 -53 q-61 -54 -78 -134l290 2l28 -54l-570 -805l12 -493q15 -1 159 -37q156 -38 156 -69q0 -29 -370 -29q-389 0 -390 31q-2 37 135 67q170 36 179 37l10 490l-602 793l39 64l832 4q9 56 34 106t66 89q40 40 99 62q60 23 130 23zM1102 1375l-984 -8l468 -611l83 -7zM671 870 l-106 19l-265 360q59 16 114 17q54 2 94 -6q39 -9 85 -19q46 -11 88 -19q49 -10 103 -5q117 9 130 20l-61 -92q-17 -26 -121 -183z" />
<glyph unicode="&#x411;" horiz-adv-x="1344" d="M167 1466h951v-173h-757v-452h350q194 0 308.5 -37t183.5 -139.5t69 -238.5q0 -111 -49.5 -207.5t-147.5 -157.5t-334 -61h-574v1466zM361 165h388q157 0 235.5 64t78.5 192q0 91 -45 152t-125 81t-273 20h-259v-509z" />
<glyph unicode="&#x412;" horiz-adv-x="975" d="M1 1163q0 200 188 200q60 0 311.5 -2t293.5 -2q94 0 135.5 -44.5t41.5 -153.5l4 -1024l-973 -9q-1 970 -1 1035zM738 891q84 0 117 71t-5 142.5t-126 71.5q-87 0 -125.5 -71.5t0.5 -142.5t139 -71zM606 551l102 197l-340 133l-67 -191zM619 1398l-8 273l-252 -13 l-16 -263l-81 12l-11 397h472l-22 -406h-82zM196 78l6 -78h-109v82zM884 78l6 -82l-109 3v82z" />
<glyph unicode="&#x413;" horiz-adv-x="1109" d="M161 1466h948v-173h-754v-1293h-194v1466z" />
<glyph unicode="&#x414;" horiz-adv-x="1387" d="M291 1466h892v-1293h132v-515h-173v342h-969v-342h-173v515h114q177 267 177 1079v214zM989 1293h-511v-75q0 -187 -33.5 -511.5t-131.5 -533.5h676v1120z" />
<glyph unicode="&#x415;" horiz-adv-x="1286" d="M374 1002q-23 -27 -55 -16q-10 3 -17 9q-17 14 -19 35.5t12 37.5q14 17 35.5 19t37.5 -12q17 -14 18.5 -35t-12.5 -38zM440 694q-9 -16 -26 -22.5t-35 -0.5q-7 2 -9 3q-19 11 -24.5 31.5t4.5 39.5q11 19 32 25t39 -5q19 -11 24.5 -31t-5.5 -40zM490 925 q-19 11 -24.5 31.5t5.5 39.5q10 18 31 24t39 -4q19 -11 25 -31.5t-5 -38.5v-1q-10 -17 -27 -23.5t-35 0.5q-5 1 -9 3zM542 178q21 -6 30.5 -25.5t2.5 -38.5q-7 -21 -26 -31t-39.5 -3t-30 26t-2.5 40q6 20 25.5 29.5t39.5 2.5zM324 514q20 -9 27.5 -28.5t-1.5 -38.5v-1 q-8 -18 -26 -26t-37 -2q-1 0 -2.5 0.5t-2.5 1.5q-19 8 -27 28t1 40q9 19 28.5 27t39.5 -1zM573 451q21 -7 30.5 -26t2.5 -40v-1q-7 -20 -26 -29.5t-39.5 -2.5t-30 26t-2.5 39q6 20 25.5 30.5t39.5 3.5zM9 583q14 17 35.5 19t38.5 -12q16 -13 18 -34.5t-12 -37.5l-1 -1 q-22 -27 -56 -16q-9 3 -17 9q-16 14 -18 35.5t12 37.5zM-68 322q14 17 35.5 18.5t38.5 -12.5q17 -13 19 -34t-12 -37l-1 -1q-23 -27 -56 -16q-10 3 -17 9q-17 14 -19 35.5t12 37.5zM214 765q-10 -15 -26.5 -20t-32.5 1q-3 1 -13 7q-17 12 -20.5 33t8.5 39q12 17 33 21t39 -8 q18 -13 21.5 -34t-8.5 -38zM275 241q19 -11 24.5 -31.5t-5.5 -39.5l-1 -1q-9 -16 -26 -22.5t-34 -0.5l-10 4q-18 11 -24 32t4.5 39t31.5 24t40 -4zM1049 507q-16 5 -26 19t-10 31q1 22 16.5 36.5t37.5 13.5q21 0 36 -15t14 -37v-1q-1 -22 -16.5 -36.5t-36.5 -13.5 q-8 0 -15 3zM1049 271q-14 5 -24 17.5t-12 28.5q-1 21 13 37.5t36 17.5q22 2 38 -12t17 -35v-1q1 -22 -13 -38t-36 -17q-11 0 -19 2zM1050 739q-15 5 -25 17t-11 28q-1 21 13 37t36 18q21 2 37.5 -12.5t17.5 -35.5v-1q1 -21 -13 -37t-36 -17q-11 0 -19 3zM635 706 q21 -6 30 -25t2 -40v-1q-7 -20 -26 -30t-39 -3t-30 26t-3 40q7 20 26 30t40 3zM1077 109q21 2 37 -12t18 -35v-1q1 -22 -13 -38t-36 -17q-11 0 -19 2q-15 5 -25 17.5t-11 28.5q-1 22 13 38t36 17zM896 898q20 -3 33.5 -19.5t11.5 -37.5v-1q-3 -21 -20 -34t-38 -10 q-3 0 -10 2q-17 5 -27 20.5t-8 34.5q3 21 20 34.5t38 10.5zM1058 1349q77 -71 107.5 -98.5t65.5 -69.5t41.5 -54.5t9.5 -47t-3.5 -54t-23.5 -69.5l-961 319q13 38 18 54.5t20 40.5t20 31t33 20.5t42.5 16.5t64 11t83 11t112.5 11l82 -27l65 198h231l-89 -266zM751 893 q-6 -21 -25.5 -30.5t-39.5 -2.5t-30 26t-3 39q7 21 26 30.5t40 2.5q20 -6 29.5 -25t2.5 -40zM809 129q21 -2 34.5 -19t10.5 -38q-3 -22 -20 -35.5t-38 -10.5q-3 0 -10 2q-17 6 -27 21t-8 34q3 22 20 35.5t38 10.5zM848 649q22 -2 35 -18.5t10 -38.5v-1q-3 -21 -20 -34 t-38 -10q-3 0 -10 2q-17 5 -27 20.5t-7 34.5q2 21 19 34.5t38 10.5zM823 396q21 -4 32.5 -22t6.5 -39v-1q-5 -21 -22.5 -32.5t-38.5 -6.5q-1 0 -2.5 0.5t-2.5 1.5q-19 6 -29 23.5t-5 36.5q4 21 22 32.5t39 6.5z" />
<glyph unicode="&#x416;" horiz-adv-x="1891" d="M1045 1466v-642q143 0 196.5 52.5t136.5 246.5q61 144 100.5 203.5t112.5 100t160 40.5q95 0 118 -2v-168q-9 0 -38 1q-32 1 -39 1q-93 0 -138 -45q-46 -45 -105 -192q-64 -159 -111 -216.5t-136 -95.5q144 -40 279 -262l302 -488h-240l-245 398q-98 158 -165 223 t-188 65v-686h-199v686q-96 0 -169.5 -50.5t-171.5 -217.5l-12 -20l-245 -398h-241l302 488q138 223 280 262q-79 32 -129 85.5t-119 226.5q-63 157 -108 197t-134 40l-78 -2v168q11 2 112 2q96 0 166.5 -39.5t110.5 -99t103 -205.5q84 -197 136.5 -247t196.5 -52v642h199z " />
<glyph unicode="&#x417;" horiz-adv-x="1237" d="M78 414l185 48q21 -107 112.5 -214t242.5 -107q154 0 243 79t89 191q0 121 -94 192.5t-256 71.5h-93v169q134 0 205 15.5t125.5 79t54.5 144.5q0 96 -74.5 167t-201.5 71q-111 0 -189.5 -55.5t-108.5 -147t-30 -136.5l-186 42q69 467 516 467q215 0 341 -119.5 t126 -279.5q0 -205 -194 -318q112 -31 187.5 -126.5t75.5 -228.5q0 -189 -146.5 -316.5t-388.5 -127.5q-416 0 -541 439z" />
<glyph unicode="&#x418;" horiz-adv-x="1472" d="M161 1466h176v-1161l780 1161h195v-1466h-176v1158l-781 -1158h-194v1466z" />
<glyph unicode="&#x419;" horiz-adv-x="1472" d="M161 1466h176v-1161l780 1161h195v-1466h-176v1158l-781 -1158h-194v1466zM890 1815h123q-15 -125 -91.5 -192t-203.5 -67q-128 0 -204.5 66.5t-91.5 192.5h123q14 -68 55.5 -101.5t111.5 -33.5q81 0 122.5 32.5t55.5 102.5z" />
<glyph unicode="&#x41a;" horiz-adv-x="1193" d="M161 1466h194v-642q133 0 187 51.5t138 247.5q61 144 100.5 203.5t112.5 100t161 40.5q112 0 118 -2v-168q-10 0 -39 1q-32 1 -39 1q-93 0 -138 -45q-46 -45 -105 -192q-74 -186 -125 -234.5t-122 -77.5q142 -39 280 -262l302 -488h-241l-245 398q-101 165 -169 226.5 t-176 61.5v-686h-194v1466z" />
<glyph unicode="&#x41b;" horiz-adv-x="1344" d="M265 1466h918v-1466h-194v1293h-530v-755q0 -230 -21.5 -337t-90.5 -166.5t-175 -59.5q-64 0 -154 24l33 172q48 -20 82 -20q66 0 99 49.5t33 233.5v1032z" />
<glyph unicode="&#x41c;" horiz-adv-x="1501" d="M875 1355q-91 30 -103 82q-12 49 50 88q78 49 227 49q171 0 243 -62q49 -43 24 -92q-23 -42 -96 -67v-34q-5 -105 -50.5 -159t-122.5 -54t-121 52.5t-51 155.5v41zM1131 1458q-119 6 -167 2q0 -27 9.5 -47.5t24 -31t32.5 -15.5t35.5 0t32.5 15.5t24 31t9 45.5zM377 951 l-7 -7l-105 -108q-53 67 9 140q0 15 -18.5 100.5t-37.5 163.5l-19 79l130 13q0 -18 24 -191.5t24 -189.5zM427 905l48 -41l-98 -137q-3 2 -14 11.5t-24 21.5t-24 24zM741 651l-213 -66l-87 89l92 151l11 -5l123 78q63 67 208 101l121 -192l19 205l80 -2l16 -208l125 190 q123 -26 208 -99q10 -63 75 -370q6 -65 -25 -125l-96 91l-53 -50l105 -115q-22 -32 -50 -63l-114 102l-46 -55l105 -105l-4 -4l9 -208l-592 9l9 302zM1159 706q0 -27 16.5 -45t40 -22t47 0.5t40.5 22t18 42.5q-114 6 -162 2zM578 1771l23 -293l-722 -93l-34 343z" />
<glyph unicode="&#x41d;" horiz-adv-x="1419" d="M695 1264q15 22 40.5 27t48 -9t28.5 -40l92 -365q8 -36 47 -47l342 -83q27 -7 40.5 -29.5t7.5 -48.5t-30 -40l-301 -180q-16 -9 -24.5 -25.5t-6.5 -34.5l21 -375q2 -42 -36 -61t-70 8l-289 241q-30 25 -65 11l-331 -136q-40 -16 -70 14t-15 70l135 336q13 36 -10 65 l-229 281q-27 34 -7 71.5t63 33.5l357 -30q39 -3 59 29zM1186 1076q-16 -14 -35 -5.5t-19 29.5v188q0 20 -17 29l-156 82q-19 10 -17 31.5t23 27.5l168 52q19 4 22 24l36 185q4 21 24.5 25.5t32.5 -12.5l110 -153q13 -16 31 -12l178 26q21 3 32 -15.5t-1 -35.5l-106 -147 q-10 -15 -3 -33l77 -164q9 -19 -5.5 -35t-35.5 -9l-169 58q-18 6 -33 -7z" />
<glyph unicode="&#x41e;" horiz-adv-x="1411" d="M572 919l-1 -28h-1v-5q0 -1 -1 -1h-4h-1v1v5h-6v-5v-1h-1h-4h-1v1v5h-9v-6v-1h-5v0v1v6h-10v-5q0 -1 -1 -1h-4h-1v1v5h-6v-5v-1h-1h-4l-1 1v5h-7v-6h1l-4 -1q-1 0 -1 1v6h-9l-10 23l-9 -13v-10h11h1v-1v-5v-1h-1h-16h-1v1v8l-1 -2h-5v-6l-4 -1l-1 1v6h-7v-6v-1h-4h-1v1v6 h-3v58h3v0h1h16v0v0h6v0v1h1h15h1v-1v0h5h1h3h1h6h1h3h1h3l4 -10v3q0 2 1 3q1 0 1.5 1t0.5 2q2 1 3 1l1.5 0.5l1.5 0.5q3 0 4 -1l1 -0.5l1 -0.5q2 -2 2 -3v-1l4 5v0v0v1h1h16h1v-1v0h3l2 -4v1q1 1 1 2q2 1 3 1l1 0.5t2 0.5q3 0 4 -1l1 -0.5l1 -0.5q2 -2 2 -3q1 -1 1 -3v-21z M980 710l-4 -1l-1 1v20h-4q-2 0 -2.5 -1t-0.5 -2v-16v-1h-6v0v1v16v4t1 2h1l-1 1q-1 1 -1 2v1.5v2.5v27q0 2 1 5q1 2 5 4h1v0h1h9h1v-66zM952 765q0 2 -1 3t-2.5 1t-2.5 -1t-1 -3v-47q0 -2 1 -2q1 -1 2.5 -1t2.5 1t1 2v9v1h1h4h1v-1v-9q0 -3 -1 -4l-0.5 -1t-1.5 -2t-2 -1 t-2 -0.5t-2 -0.5q-2 0 -3 1q-1 0 -3 1.5t-2 2.5t-0.5 2t-0.5 2v47q0 3 1 4q1 0 1.5 1l0.5 1q2 2 3 2l1.5 0.5l1.5 0.5q3 0 4 -1l1 -0.5t1 -1.5l2 -2q0 -1 0.5 -2.5l0.5 -1.5v-6v-1h-1h-4h-1v1v6zM937 769h-1h-4v-15l2 -3v-34h-2v-7v-1h-1h-4l-1 1v7l-21 1v-3h12h1v-1v-3v-1 h-1h-16h-1v1v7l-1 1l-5 6v-7q0 -2 -1 -4l-0.5 -0.5t-0.5 -1v-1.5q-2 -2 -4 -2q-1 0 -1.5 -0.5t-1.5 -0.5h-3v1v3q0 1 1 1h3q2 0 2 1q1 1 1 3v10q-1 0 -2 -0.5t-2 -0.5q-2 0 -3 1q-1 0 -1.5 0.5l-0.5 0.5l-1 1l-1 1l-0.5 0.5t-0.5 1.5v0l-7 -10v-4q0 -2 -1 -6q-1 -1 -5 -3 l-1 -0.5t-2 -0.5h-8h-1v1v9h-15v-3h11h1v-1v-3v-1h-1h-15h-1v1v7l-19 -1v-8v-1h-1h-3h-1v1v8h-7l-2 3v-10v-1h-4h-1v1v21l-2 3v35h-3h-1v0v4v1h1h3h12h1h15h1l11 -7v7v1h1h15h1v-1v-3l2 3h25v1h1h4h1v-1h7h1h3h1h6v1h1h16h1v-1v-1l2 -4v0v4v1h1h16h1v-1v-4h-1zM778 766 q0 2 -1 2l-1 0.5l-1 0.5q-2 0 -3 -1t-1 -2v-47q0 -2 1 -2q1 -1 2.5 -1t2.5 1l1 2v47zM782 771v-1q0 -1 1 -1v-3v-47v-3q0 -1 -1 -1v-1l-3 -3h-3.5h-3.5l-3 3q0 1 -0.5 1.5t-0.5 1.5l-0.5 1l-0.5 1v48q0 2 1 2q0 1 0.5 2l0.5 1q2 1 3 3q1 1 3.5 1t3.5 -1q0 -1 1 -2zM761 710 l-5 -1h-1v1v18l-6 -10v-8v-1h-1h-4l-1 1v7h-48v-1q0 -1 -1 -1q0 -1 -1 -1l-3 -3h-3.5h-3.5q0 1 -1 1l-1 2l-1.5 1.5t-0.5 1.5l-7 -2v-5v-1h-1h-4q-1 0 -1 1v3l-3 -1l-3 5v-8v-1h-1h-4l-1 1v15l-5 7v-15q0 -2 -2 -5q-1 -2 -4 -4q-1 3 -2 3h-2h-8v1v6h-6v-7l-4 -1h-1v1v7h-7 v-1v-2q0 -1 -1.5 -2.5t-3.5 -1.5q-1 0 -1.5 -0.5t-1.5 -0.5h-1v1v3q0 1 1 1h1q1 0 1 1q1 1 1 2h-6v-1q0 -1 -1 -1q0 -1 -1 -1t-1.5 -1t-1.5 -2h-3.5h-3.5q0 1 -1 1l-1 2l-1.5 1.5t-0.5 1.5h-4l-7 9v-16v-1h-5h-1v1v24l-6 7l-7 -24h-40v-7h1l-4 -1h-1v1v7h-18v-7v-1h-1h-5v0 v1v7h-6v-6q0 -1 -1 -1h-3h-1v1v6h-6v-7v-1h-5h-1v1v7h-7q0 -2 -1 -5q-1 -1 -5 -3q-1 0 -2 -1h-4h-3h-1v1v8h-3v57h33l1 1q3 0 4 -1q0 -1 1 -1t2 -1q1 -2 1 -3q1 0 1 -3v-1l6 -7v15v1v0h5v-1v-1l0.5 -1t0.5 -2l1 -4q1 -1 1.5 -2.5t1 -2t0.5 -2t0.5 -2t1 -2t1.5 -2.5 q0 -1 0.5 -2t0.5 -2v2v2t2 4q1 1 1 2.5t1 2.5l0.5 2t1 2.5t1 2l0.5 1.5q0 1 1 1l-1 4h1h5h1h48h1h16v0h8l1 1q1 1 3.5 1t3.5 -1l1 -1h33h4h1h26l14 4l6 -5q0 1 1 2t3.5 1t3.5 -1t1.5 -2t1.5 -2l1 -1q0 -1 1 -1v-3v-6l1 -2l7 16h45v-1h12h1v-4v-59zM689 766v2q-1 0 -2 0.5 l-1 0.5l3 -4v1zM910 885l-5 -1v1v13l-4 4q-3 0 -4 1l-2 1.5t-2 2.5t-0.5 2t-0.5 2v0l-8 9l-11 -29h-40v0h12h1v-1v-5v-1h-1h-16h-1v1v6l-6 -2v-4l-4 -1h-1v1v2l-3 -1l-3 5v-6v-1h-1h-4h-1v1v14l-6 8v0v-22l-4 -1h-1v1v10l-2 -4h-17v-6v-1h-4h-1v1v6h-48v-5q0 -1 -1 -1h-3h-1 v1v5h-7v-5v-1v0h-4h-1v1v5h-7v-6h1l-4 -1h-1v1v6h-1l-6 8v-14v-1h-1h-4v0v1v20l-9 11l-8 -10l2 -15h-44v0h11h1v-1v-5v-1h-1h-16h-1v1v6h-2v58h2v0v1h1h16h1v-1v0h47v0v1v0h4h1v-1v0h6v0q0 1 1 1h3h1v-1v0h10v-1l2 1q2 1 3 1q3 0 4 -1l1 -0.5l1 -0.5q2 -2 2 -3q1 -1 1 -3 v-13l10 -14l3 11l5 23h30v0v1h1h4v-1v0h18v0h4h1v0h7v0v1h1h4h1v-1v0h6v0q0 1 1 1h3h1v-1v0h6v0v1h1h16h1v-1v-4v-1h-1h-8l10 -11l7 16h38h1h4v0h7h1h3h1h4v0v1h1h16h1v-1v0h8h1q0 1 3 1t4 -1h1h17v-12l-13 -11l13 -35h-14l-1 -1q0 -1 -1 -1q0 -1 -1 -1.5t-1 -1.5 q-1 -1 -4 -1t-3 1q-1 0 -1 1q-2 1 -2 2l-0.5 1t-1.5 1h-10v-6v-1h-1h-4h-1v1v6h-8l-2 2v-8h1zM717 942q0 1 -1 2t-3 1q-1 0 -2 -1l5 -7v5h1zM614 945l-1 -1h-5v-59v-1h-1h-4v0v1v59h-6h-1v1v4v1h1h16h1v-1v-4zM593 885l-5 -1v0v1v35l-7 -7v-28v-1h-1h-4h-1v1v64v1h1h4h1v-1 v-28l7 7v21v1v0h4h1v-1v-64zM575 960v4v1l9 -3l8 3v-1v-3v-1l-8 -4zM564 942q0 1 -1 2t-2.5 1t-2.5 -1t-1 -2v-1l6 -9v10h1zM522 942q0 1 -1 2t-3 1t-2.5 -1t-0.5 -2v-13l1 -2l5 8v7h1zM628 1116q0 2 -1 3t-2.5 1t-2.5 -1q0 -1 -0.5 -1.5t-0.5 -1.5v0l6 -6v6h1zM610 1061 l-5 -1h-1v1v6l-6 -2v-4v-1h-1h-4h-1v1v4l-5 7v-3q0 -3 -1 -4l-0.5 -0.5t-0.5 -1t-0.5 -1l-0.5 -0.5l-1 -0.5t-1.5 -0.5t-1.5 -0.5l-1 -0.5h-5v1v4q0 1 1 1h4q2 0 2 1v2v10v0l-1 -0.5t-2 -0.5q-3 0 -4 1l-0.5 0.5t-1 0.5t-0.5 1q-1 0 -1 2q-1 1 -1 2q-1 0 -1 2v9l-2 3h-3v-38 l-5 -1h-1v1v38l-6 -30v-2v-2q0 -1 -2 -2q-4 -2 -5 -2l-1 -0.5l-1 -0.5h-1v1v4q0 1 1 1h1q1 0 1 1v2h-5v-7q0 -1 -1 -1h-3h-1v1v7h-6v-7v-1h-1h-5v0v1v7h-5v-8v-1h-1h-4q-1 0 -1 1v8h-6v-8v-1h-4v9h-4l-4 5v-12q0 -1 -1 -1h-4h-1v1v19l-6 8v-19v-3q0 -1 -1 -2q0 -1 -1 -1 q0 -1 -2 -3q-1 0 -2.5 -0.5t-2.5 -0.5q-2 0 -3 1l-3 3q-1 1 -1 2t-0.5 1.5t-0.5 1.5h-6v-8l-5 -1h-1v1v8h-6v-8v-1h-4h-1v1v8h-3v56h3h1h16v0h11q1 0 2 0.5l1 0.5q3 0 4 -1h11v1h1h4h1v-1v-6l7 -10v16h3v-1v-19l2 -3h2q1 0 1 1q1 1 1 2v20v1h5h1v-1v-19v-1l6 20h7l1 0.5 l1 0.5q3 0 4 -1h10h1h17h1h5v1h1h4v0v-1h7v1h1h4h1v-1h5v1h1h3h1v-1h7v1h1h4h1v-1h2l5 -5v1l1 1l3 3h3q3 0 4 -1l1 -0.5t2 -1.5l1 -1l1 4h4v1h1h15h1v-1h8q1 0 2 0.5t2 0.5q2 0 3 -1h20l14 -11v-45h-29v-7v-1h-4h-1v1v8l-6 7v-15v-1h-5h-1v1v19l-4 -12h-5v-8v-1h-1h-4h-1v1 v8h-8q0 -3 -1 -4l-2 -2t-2 -1.5l-1 -0.5l-1.5 -0.5t-2.5 -0.5q-2 0 -3 1q-1 0 -2.5 1.5t-1.5 2.5t-0.5 2t-0.5 2h-6v0v-8zM593 1136v4v1l9 -4l8 4v-1v-4v0l-9 -4zM1293 621q12 0 20 3t11 9.5t4 12t1 16t-1 16t-4 12t-11 9.5t-20 3q-24 0 -31 -10t-7 -31q0 -13 2 -20.5 t10.5 -13.5t25.5 -6zM1293 447q23 0 29.5 9.5t6.5 31.5q0 10 -1 15.5t-4 12t-11 9.5t-20 3q-24 0 -31 -10t-7 -30q0 -14 2 -21.5t10.5 -13.5t25.5 -6zM243 184l913 1v115l-916 25zM267 1384l-9 -774l882 13l-8 543l-222 -18l4 237zM1323 809q37 -1 60.5 -32.5t23.5 -86.5 v-690h-1408q9 608 9 702q0 67 29 91.5t91 24.5h17q0 -1 33 -1v655l783 3l257 -253l6 -411q40 -1 61 -1.5t38 -0.5zM975 736v33h-4q-2 0 -2.5 -1t-0.5 -2v-27q0 -2 1 -2q0 -1 2 -1h4zM921 769l5 -8v8h-5v0zM887 734l-4 6l-1 -2v-1q0 -2 0.5 -3t2.5 -1q1 0 2 1zM864 718h-7v-3 h4q1 0 2 1t1 2v0zM848 769h-11v0v-6l5 -3zM749 743l6 -12v38h-6v-26zM689 717h-6q1 -1 3 -1t3 1zM644 724l-4 -7h-3v-2h3q2 0 3 1t1 2v6zM595 717h-5q1 -1 3 -1t2 1zM494 750l4 -6l-0.5 1t-0.5 1.5t-0.5 1.5l-0.5 1l-2 6v-5zM508 744l2 1v6l-1 -2v-1v-1.5t-0.5 -1.5l-0.5 -1 v0zM454 717h-7v-3h4q1 0 2 1zM628 1069h-7q0 -2 1 -3h2q2 0 3 1t1 2zM577 1086l-3 3v-1q0 -2 1 -2h2v0zM510 1097l2 -3v0q0 2 -1 2zM478 1080l-5 -11h-2q0 -1 1 -1q1 -1 2.5 -1t2.5 1l1 2v10z" />
<glyph unicode="&#x41f;" horiz-adv-x="1472" d="M160 1466h1153v-1466h-195v1293h-764v-1293h-194v1466z" />
<glyph unicode="&#x420;" horiz-adv-x="1524" d="M627 1018v-251h98q105 0 141 14q37 15 56 44q20 30 20 69q0 48 -29 80t-72 39q-32 5 -128 5h-86zM448 284v884h286q161 0 212 -13q77 -21 127 -87q51 -66 51 -172q0 -81 -29 -137q-30 -57 -75 -87q-46 -32 -92 -42q-62 -12 -185 -12h-116v-334h-179zM1369 1313 q-1 18 -14 30.5t-32 12.5l-1139 -10q-18 0 -31 -13t-13 -31l-22 -1136q0 -19 13 -32.5t31 -13.5l1197 -6q19 -1 32.5 12.5t12.5 32.5zM1444 1476q17 0 30 -12.5t14 -30.5l34 -1394q1 -19 -12 -32t-32 -13l-1439 6q-17 0 -29 12.5t-12 30.5l21 1379q1 18 14 30.5t31 12.5z " />
<glyph unicode="&#x421;" horiz-adv-x="1638" d="M37 267q-38 341 -38 379q0 193 133 237q38 133 85 227q16 41 35.5 72.5t54 64t80 53.5t113.5 34t153 13h341q178 0 278.5 -61.5t157.5 -203.5q41 -95 76 -218q64 -28 98.5 -90t34.5 -147l-19 -360h-1583zM312 400q52 0 90.5 24.5t55.5 61t17 79.5t-17 80t-55.5 61.5 t-90.5 24.5t-91 -24.5t-57 -61.5t-18.5 -80t16.5 -79.5t56.5 -61t93.5 -24.5zM1297 1016q-29 78 -63 117t-88.5 55.5t-151.5 16.5h-341q-64 0 -113.5 -9.5t-77.5 -21t-51 -35.5t-32 -39t-23 -44l-6 -12q-11 -22 -30.5 -79t-26.5 -73h1061q-9 19 -28 62t-29 62zM1345 693 q-39 0 -67.5 -19t-42.5 -47t-14.5 -61.5t12.5 -62t42 -47t70 -18.5t70.5 18.5t43 47t13.5 62t-13.5 61.5t-43 47t-70.5 19zM426 68q0 -29 -21.5 -52t-56 -35t-75.5 -17.5t-82.5 0t-76 17.5t-56 35t-21.5 52v104l389 10v-114zM1620 68q0 -34 -27.5 -59t-68.5 -36t-89 -11 t-89 11t-68.5 36t-27.5 59v114l370 -10v-104z" />
<glyph unicode="&#x422;" horiz-adv-x="1979" d="M812 1282q-64 0 -108.5 36.5t-56 88.5t-3 103.5t49.5 88t102 36.5q72 0 120 -36.5t58.5 -88t-0.5 -103.5t-55.5 -88.5t-106.5 -36.5zM448 854q-71 0 -121 40.5t-62.5 98.5t-3.5 116t55.5 98.5t114.5 40.5q81 0 134.5 -40.5t65 -98.5t-0.5 -116t-62 -98.5t-120 -40.5z M1813 1228q187 -601 231 -789q-95 -109 -194.5 -188.5t-191 -124.5t-184.5 -73.5t-182 -39t-175.5 -15.5t-173 -9.5t-166 -14.5t-163 -36.5t-156.5 -69.5l-71 228q-96 -39 -188 -91q-179 618 -243 847q81 69 169 118q17 -69 52 -121q-53 -32 -79 -51q10 -38 89.5 -306 t90.5 -302q109 60 236 93l-143 431q39 -8 78 -8q86 0 154.5 35.5t108.5 92.5t57 127t8 141q85 5 146 11.5t146.5 23t157.5 41t158 66.5t168 100q36 -107 124.5 -408.5t118.5 -427.5q-97 -89 -191.5 -147t-180.5 -85.5t-169 -40.5t-172.5 -17t-174.5 -8t-192 -21t-208 -49 l24 -87q88 33 188 48t188 17t184 4.5t191.5 18t194 49t208 105.5t218.5 181l-202 683zM1473 1148q-167 -96 -339 -133l186 -635q184 47 327 170q-35 137 -174 598z" />
<glyph unicode="&#x423;" horiz-adv-x="1301" d="M10 1466h196l478 -898l418 898h193l-550 -1140q-103 -214 -169 -280t-189 -66q-75 0 -184 35v166q78 -45 165 -45q71 0 122.5 45.5t113.5 207.5z" />
<glyph unicode="&#x424;" horiz-adv-x="1557" d="M688 1290v188h182v-188q280 -15 442 -168.5t162 -381.5q0 -223 -157 -379t-447 -172v-189h-182v189q-260 10 -433 158.5t-173 392.5q0 245 172.5 392t433.5 158zM870 1124v-768q188 9 296 109t108 275q0 172 -106 272.5t-298 111.5zM688 1123q-181 -8 -293 -107 t-112 -276q0 -175 110.5 -275t294.5 -108v766z" />
<glyph unicode="&#x425;" horiz-adv-x="1772" />
<glyph unicode="&#x426;" horiz-adv-x="1515" />
<glyph unicode="&#x427;" horiz-adv-x="1365" d="M1204 0h-194v591q-261 -97 -457 -97q-153 0 -270 71.5t-156.5 181.5t-39.5 288v431h194v-413q0 -240 87.5 -315.5t210.5 -75.5q205 0 431 91v713h194v-1466z" />
<glyph unicode="&#x428;" horiz-adv-x="1877" d="M161 1466h194v-1293h487v1293h194v-1293h487v1293h194v-1466h-1556v1466z" />
<glyph unicode="&#x429;" horiz-adv-x="1920" d="M161 1466h194v-1293h487v1293h194v-1293h487v1293h194v-1293h133v-580h-173v407h-1516v1466z" />
<glyph unicode="&#x42a;" horiz-adv-x="1621" d="M0 1466h640v-626h351q345 0 452.5 -128t107.5 -288q0 -184 -124.5 -304t-423.5 -120h-557v1293h-446v173zM640 165h355q183 0 265 61.5t82 195.5q0 91 -48.5 153.5t-128.5 80t-266 17.5h-259v-508z" />
<glyph unicode="&#x42b;" horiz-adv-x="1813" d="M168 1466h194v-626h350q344 0 452.5 -127t108.5 -288q0 -170 -116 -297.5t-431 -127.5h-558v1466zM362 165h355q183 0 265.5 61.5t82.5 196.5q0 92 -50 154t-129 79t-264 17h-260v-508zM1449 1466h194v-1466h-194v1466z" />
<glyph unicode="&#x42c;" horiz-adv-x="1344" d="M165 1466h194v-626h350q245 0 355 -57t158 -155t48 -202q0 -170 -116 -298t-432 -128h-557v1466zM359 165h355q216 0 281.5 76.5t65.5 184.5q0 88 -47.5 149.5t-126.5 79.5t-268 18h-260v-508z" />
<glyph unicode="&#x42d;" horiz-adv-x="1472" d="M615 843v-173h545q-11 -247 -137 -389.5t-323 -142.5q-350 0 -439 372l-187 -49q127 -486 612 -486q347 0 516.5 223.5t158.5 550.5q0 200 -75.5 365t-231.5 271t-372 106q-228 0 -381.5 -113t-207.5 -314l190 -50q83 307 400 307q214 0 335.5 -129t133.5 -349h-537z" />
<glyph unicode="&#x42e;" horiz-adv-x="2069" d="M164 1466h194v-658h282q21 312 205 497.5t456 185.5q287 0 475.5 -202t188.5 -548q0 -360 -188 -563t-481 -203q-266 0 -443.5 175.5t-208.5 485.5h-286v-636h-194v1466zM835 726q0 -278 128 -431.5t336 -153.5q213 0 340 154t127 443q0 274 -125 431.5t-338 157.5 q-217 0 -342.5 -159.5t-125.5 -441.5z" />
<glyph unicode="&#x42f;" horiz-adv-x="1479" d="M1318 0v1466h-650q-196 0 -298 -39.5t-163 -139.5t-61 -221q0 -156 101 -263t312 -136q-77 -37 -117 -73q-85 -78 -161 -195l-255 -399h244l194 305q85 132 140 202t98.5 98t88.5 39q33 7 108 7h225v-651h194zM1124 819h-417q-133 0 -208 27.5t-114 88t-39 131.5 q0 104 75.5 171t238.5 67h464v-485z" />
<glyph unicode="&#x430;" horiz-adv-x="1865" d="M1494 997q-4 -55 -15 -229.5t-17 -245.5q-4 -49 -23.5 -92t-46.5 -72.5t-59 -53.5t-63 -38t-56.5 -23t-41.5 -13l-16 -3l-53 570l-158 -85l-317 -169l-337 285l5 10t15.5 22t27 29.5t38.5 27t50.5 20t62.5 4t75 -17.5q21 -10 106 -32q147 101 410.5 268.5t401.5 249.5 q102 58 211.5 97t192.5 44t113 -36q26 -41 -10.5 -116.5t-120 -157t-185.5 -137.5q-10 -10 -23.5 -19t-34 -20.5t-37.5 -20t-47.5 -23t-47.5 -23.5zM491 1430q4 4 10 12.5t27.5 30t45 39t61 35t76 23.5t89.5 -1.5t103 -33.5q232 -116 348 -169l-390 -211zM808 -48l-844 22 l-21 168l875 21z" />
<glyph unicode="&#x431;" horiz-adv-x="1173" d="M913 1501l159 -2q-11 -107 -47.5 -149t-94 -54t-225.5 -12q-223 0 -304 -43t-116.5 -137.5t-39.5 -243.5q68 101 159 151.5t205 50.5q209 0 346 -143.5t137 -388.5q0 -186 -69 -305t-163.5 -184t-257.5 -65q-189 0 -294 86.5t-161 221.5t-56 470q0 421 142.5 567 t438.5 146q184 0 209 6t32 28zM904 535q0 166 -78.5 272t-221.5 106q-149 0 -230 -112t-81 -299q0 -185 89.5 -283t220.5 -98q134 0 217.5 113.5t83.5 300.5z" />
<glyph unicode="&#x432;" horiz-adv-x="1088" d="M136 1062h415q153 0 227.5 -25.5t128 -93.5t53.5 -163q0 -76 -31.5 -132.5t-94.5 -94.5q75 -25 124.5 -93.5t49.5 -162.5q-10 -151 -108 -224t-285 -73h-479v1062zM316 615h192q115 0 158 12t77 48.5t34 87.5q0 84 -59.5 117t-203.5 33h-198v-298zM316 148h237 q153 0 210 35.5t60 122.5q0 51 -33 94.5t-86 55t-170 11.5h-218v-319z" />
<glyph unicode="&#x433;" horiz-adv-x="747" d="M136 1062h611v-149h-431v-913h-180v1062z" />
<glyph unicode="&#x434;" horiz-adv-x="1195" d="M277 1062h740v-914h115v-449h-148v301h-836v-301h-148v449h95q190 258 182 914zM427 913q-20 -517 -160 -765h571v765h-411z" />
<glyph unicode="&#x435;" horiz-adv-x="1761" d="M901 -206q-200 0 -366 61.5t-271.5 165.5t-178 238.5t-86.5 283.5t3.5 297.5t92.5 283.5t180 238.5t265 165t350 61.5q187 -2 344.5 -64.5t259 -166.5t172.5 -239t86.5 -283t1 -296.5t-84.5 -282.5t-170.5 -237.5t-256 -164.5t-341.5 -61zM879 1467q-111 0 -167 -11 l23 -122l-255 -188l-222 11l-66 -100l44 -443l144 -177l-144 -200q227 -321 665 -321q132 0 246.5 37.5t198.5 101.5t147 151t100 184t50 202l-111 100l-155 55l-22 -33l55 -67l45 -11l22 -66l-144 -78l-100 189l-33 -78l78 -166l88 -22l-155 -89l-199 -277l-167 -11 l-33 166l22 244l-188 55l-66 155l33 145l177 77l177 -100l89 34l133 -34l33 178l-177 55v-111h-111l-11 122l-133 -33l11 100l-55 33l88 77l144 -77l45 100l110 44l78 -33l78 11l33 88q-190 133 -443 133z" />
<glyph unicode="&#x436;" horiz-adv-x="2262" d="M1146 198v59v-59zM839 549zM788 257h271h-271zM1051 549zM1059 674h-74h74zM920 586v146v-146zM832 666q12 26 25 40zM971 549v-51v51zM1797 710h139v-22h-139v-22l8 -22q3 -11 7 -14h88l-22 -22h-44q-33 -22 -75.5 -22t-70.5 34t-37 61v22q0 54 33.5 89t75 35t74.5 -22 v-2q1 -4 -7 -5h73q0 -4 3.5 -7.5t3.5 -7.5l7 -7h-95zM2134 198v59h-271v-59h271zM1775 198v59h-263v-59h263zM1607 710l7 -36q15 -44 30 -59q35 -58 117 -58q46 0 95 36q29 -29 90.5 -29t106 46t44.5 97t-22 84q-9 28 -43 50.5t-80.5 22.5t-95.5 -37q-29 30 -91 30 t-107 -42.5t-51 -104.5zM1410 198v59h-264v-59h264zM1059 579v58h-59v-58h59zM1059 198v59h-271v-59h271zM890 549h-51q10 -30 51 -44v44zM832 644v-58h58v58h-58zM890 725q-35 -12 -58 -59h58v59zM920 549v-51h51v51h-51zM1000 549v-44q41 14 51 44h-51zM1059 674 q-24 58 -81 58h-58v-146h51v88h88zM2148 1003q52 0 86 -34.5t24 -75.5v-783q0 -43 -36 -80q-30 -29 -74 -29h-1382q-56 0 -91 51q-19 27 -19 58v783q0 44 33 77t77 33h1382zM1797 688v-22l8 -22q7 -7 7 -14h88l-22 -22h-44q-22 -22 -66 -22t-88 44q-14 14 -29 58v22 q0 50 34 83.5t80.5 33.5t68.5 -22q-7 0 -7 -7h73l7 -15q7 0 7 -7h-102l-15 -44v-22h132v-22h-132zM993 1098q7 -7 7 -22h-307q-44 0 -78 -34t-39 -83v-198q-38 51 -59 103v7q-14 88 -14 124q0 222 219 271q99 21 170 -29t101 -139zM583 659v-110q-253 -48 -426 14 q-75 26 -152 74l-7 790v7q56 -12 190 -29l7 212q142 -35 314 -5q76 13 158.5 33t163 39.5t164.5 34t171.5 14.5t175.5 -17q188 -34 375 -179v-461h-110v380q-169 140 -367 151q-171 10 -377 -38q-97 -23 -186 -45q-222 -54 -372 -46v-80q191 -3 395 45q82 20 167 40 t161 30.5t155 7.5q164 -6 336 -116v-329h-117v102q-59 24 -100 79t-46 133q-128 28 -314 0q-131 -21 -267 -51q-247 -55 -384 -58q-11 -71 -60 -117t-116 -51v-198l7 -44q61 -24 104 -79.5t43 -132.5q115 -27 314 0z" />
<glyph unicode="&#x437;" horiz-adv-x="1808" d="M1423 832q33 -143 -8 -286.5t-145.5 -247.5t-248 -145t-286.5 -9zM1672 525q-23 -17 -31.5 -46t1.5 -57q16 -31 0 -95q-22 -45 -73 -65q-58 -24 -58 -88q0 -22 -10 -47t-27 -41q-29 -29 -80 -29q-29 0 -52 -16t-29 -43q-5 -21 -24 -41t-42 -32q-47 -24 -95 0 q-52 21 -102 -29q-33 -44 -80 -44q-59 0 -88 29q-22 22 -59 22q-14 0 -44 -15q-48 -24 -95 -14q-22 5 -42 21t-31 37q-12 25 -36 37l80 80q187 -76 388 -36t343.5 182.5t183 344t-36.5 387.5l66 81q12 -25 36 -37q22 -11 37.5 -31t21.5 -42q11 -44 -15 -95 q-16 -23 -13 -51.5t20 -51.5q30 -29 30 -87q0 -55 -44 -88zM362 518q-32 142 9 285.5t145 248t247.5 145.5t286.5 8zM114 825q22 17 31 45.5t-2 56.5q-16 32 0 95q23 46 73 66q59 23 59 88q0 51 36.5 87.5t87.5 36.5h7q29 0 52 16t29 43q5 21 24 41t42 32q47 24 95 0 q27 -11 56 -2t46 31q44 44 81 44q58 0 87 -29q23 -18 51.5 -20.5t51.5 12.5q48 24 95 15q49 -10 73 -59q12 -24 37 -36l-81 -81q-186 77 -387.5 37t-344 -182.5t-182.5 -344t36 -387.5l-80 -81q-12 25 -37 37q-21 11 -37 31t-21 42q-11 44 14 95q16 23 13 51t-20 51 q-29 30 -29 88q0 26 12.5 47.5t31.5 33.5zM443 49l-37 15l-65 -66l14 -36q10 -10 0 -30q-5 -10 -10.5 -12t-18.5 -2q-7 0 -22 14l-102 227q-10 20 7 37q14 14 29 7l234 -102q6 0 10.5 -6t4.5 -16q0 -11 -4.5 -20.5t-10.5 -9.5q-2 0 -8.5 -1.5t-12 -1.5t-8.5 3zM319 57l29 29 l-59 29zM538 130q-15 0 -22 7l-80 81l-66 65q-15 30 -15 44q0 22 15 37l22 22q27 27 65.5 27t66 -27.5t27.5 -62t-28 -61.5l-22 -22l59 -66q6 -7 9 -15t-2 -15q-14 -14 -29 -14zM479 305q8 8 8 22q-11 22 -22 22q-3 4 -8.5 4t-12 -2t-8.5 -2l-22 -22l44 -44zM706.5 298 q-14.5 0 -22.5 7l-146 147q-16 16 -16 40t16 40l22 22q27 28 62 28t62 -28q24 -29 25 -62t-25 -62l-22 -22l66 -66q7 -6 9.5 -14.5t-2.5 -14.5q-14 -15 -28.5 -15zM648 466q5 11 5 25t-5 19q-22 11 -44 0l-22 -22l44 -44zM984 576q0 -12 -5.5 -20.5t-16.5 -8.5h-95l29 -37 q10 -12 8.5 -24.5t-8.5 -19.5q-22 -11 -43 0l-147 147q-16 16 -16 40t16 40l22 22q22 27 56 28.5t61 -21.5q28 -22 32.5 -55.5t-17.5 -61.5h95q11 0 20 -9t9 -20zM809 635q14 14 14 29q-1 2 -3.5 7.5t-3 7t-3 3.5t-5 3t-7.5 1q-22 0 -29 -8l-22 -22l44 -43zM1101 678 q-29 -29 -58 -29q-37 0 -66 29l-81 81q-27 27 -27 62t27.5 62.5t62 27.5t62.5 -28l80 -80q28 -28 28 -62.5t-28 -62.5zM933 803l80 -81q8 -7 30 -7q22 11 22 22q0 22 -8 29l-80 81q-7 7 -29 7q-3 -1 -8 -3.5t-6.5 -3.5t-4 -3t-3 -5t-0.5 -7q0 -22 7 -29zM1247 832 q-2 0 -7.5 3.5t-13.5 3.5l-205 125q-15 29 -8 44q5 11 20.5 9.5t31.5 -17.5l109 -66l-65 110q-7 11 -5 25t12 19q5 6 18 4.5t18 -11.5l125 -205q5 -6 5 -15t-5 -14q-15 -15 -30 -15zM1371.5 964q-14.5 0 -21.5 7l-81 80l-80 81q-22 22 0 44l80 80q11 11 25 11t19 -11 q11 -22 0 -44l-66 -58l37 -44l44 44q15 14 29 7q22 -11 22 -22q10 -10 -14 -22l-44 -44l44 -43l65 65q22 22 44 0q11 -11 11 -24.5t-11 -19.5l-80 -80q-8 -7 -22.5 -7zM1540 1125q-3 0 -12 3.5t-17 3.5l-168 168q-22 22 0 44l22 22q38 33 86.5 33t81.5 -33l44 -44 q33 -33 33 -84t-33 -84l-15 -22q-7 -7 -22 -7zM1496 1322q-16 17 -40 17t-40 -17l124 -124q17 16 17 40t-17 40zM92 262q-103 204 -103 416q0 183 70 351t201 293q134 129 300 200t344 71q212 0 417 -103l-22 -44q-180 96 -395 96q-119 1 -232 -29t-208.5 -86t-176 -136 t-136 -175.5t-87 -207.5t-31.5 -230q0 -215 95 -395zM904 -236q-110 0 -221 26.5t-204 76.5l15 43q194 -102 410 -102q117 0 229 31t207.5 87t176.5 136.5t137.5 175.5t88 208.5t31.5 231.5q0 112 -28 222.5t-82 202.5l37 22q117 -223 117 -447q0 -182 -70 -350t-201 -293 q-125 -131 -293 -201t-350 -70z" />
<glyph unicode="&#x438;" horiz-adv-x="2192" d="M1100 991q-19 38 -19 70q0 62 33 95q38 39 93 39q41 0 73 -22l-3 -8l77 1q2 -3 6 -6q4 -2 6 -4t2 -5l8 -7h-22l-84 -1l-19 -65h139v-8v-21h-139l20 -65l90 -1l-22 -22h-7h-22h-22h-8q-32 -22 -73 -22q-81 0 -107 52zM2195 979v-42v-854q0 -88 -81 -88h-1594 q-88 -1 -88 117v110h95v-110q0 -22 22 -22h1521q22 -1 22 22v403h-219v292h146h73v168q1 22 -22 22h-197v95h197q125 0 125 -113zM1632 288h-732h-680h-73h-30q-124 0 -124 124v856q0 124 124 124h1515q124 0 124 -124v-344v-175v-147v-190q0 -124 -124 -124zM1602 515v65 h-292v-65h292zM1207 1231q-67 0 -117 -49q-46 -44 -46 -121q1 -87 61 -125q52 -34 102 -34q54 0 103 37q58 -29 95 -29q161 0 161 160q0 168 -161 169q-54 0 -103 -37q-58 29 -95 29zM922 580v-65h293v65h-293zM286 1092v-161h51v96h22h80q-11 29 -33.5 47t-53.5 18h-66z M373 895v-51q22 5 37.5 19.5t21.5 31.5h-59zM286 895v-51h58v51h-58zM249 1092q-48 -24 -58 -65h58v65zM249 997h-58v-66h58v66zM249 895h-58q9 -15 15 -22.5t17.5 -16.5t25.5 -12v51zM439 515h-7v65h-293v-65h300zM439 931v66h-66v-66h66zM820 515h-8v65h-285v-65h293z" />
<glyph unicode="&#x439;" horiz-adv-x="2192" d="M1100 991q-19 38 -19 70q0 62 33 95q38 39 93 39q41 0 73 -22l-3 -8l77 1q2 -3 6 -6q4 -2 6 -4t2 -5l8 -7h-22l-84 -1l-19 -65h139v-8v-21h-139l20 -65l90 -1l-22 -22h-7h-22h-22h-8q-32 -22 -73 -22q-81 0 -107 52zM2195 979v-42v-854q0 -88 -81 -88h-1594 q-88 -1 -88 117v110h95v-110q0 -22 22 -22h1521q22 -1 22 22v403h-219v292h146h73v168q1 22 -22 22h-197v95h197q125 0 125 -113zM1632 288h-732h-680h-73h-30q-124 0 -124 124v856q0 124 124 124h1515q124 0 124 -124v-344v-175v-147v-190q0 -124 -124 -124zM1602 515v65 h-292v-65h292zM1207 1231q-67 0 -117 -49q-46 -44 -46 -121q1 -87 61 -125q52 -34 102 -34q54 0 103 37q58 -29 95 -29q161 0 161 160q0 168 -161 169q-54 0 -103 -37q-58 29 -95 29zM922 580v-65h293v65h-293zM286 1092v-161h51v96h22h80q-11 29 -33.5 47t-53.5 18h-66z M373 895v-51q22 5 37.5 19.5t21.5 31.5h-59zM286 895v-51h58v51h-58zM249 1092q-48 -24 -58 -65h58v65zM249 997h-58v-66h58v66zM249 895h-58q9 -15 15 -22.5t17.5 -16.5t25.5 -12v51zM439 515h-7v65h-293v-65h300zM439 931v66h-66v-66h66zM820 515h-8v65h-285v-65h293z M760 1464h123q-15 -125 -91.5 -192t-203.5 -67q-128 0 -204.5 66.5t-91.5 192.5h123q14 -68 55.5 -101.5t111.5 -33.5q81 0 122.5 32.5t55.5 102.5z" />
<glyph unicode="&#x43a;" horiz-adv-x="2214" d="M1988 1048q0 -38 -24.5 -63t-63 -25t-63.5 25t-25 63t25 63t63.5 25t63 -25t24.5 -63zM979 1048q0 -38 -25 -63t-63.5 -25t-63 25t-24.5 63t24.5 63t63 25t63.5 -25t25 -63zM1820 1472h387v-395v-66v-387h-395h-204v-66q0 -42 -3.5 -74.5t-14 -65.5t-19.5 -55t-32.5 -58 t-40 -58.5t-53.5 -71.5q-13 -18 -20 -27q-28 -37 -50.5 -80.5t-33.5 -70.5t-30 -52t-47 -38q-59 -29 -117 -29h-22h-29h-22h-30h-36h-22h-15q-77 0 -130.5 -0.5t-108 -3.5t-76.5 -4t-94 -6.5t-103 -7.5q-97 -3 -190.5 -21.5t-137.5 -35.5l-45 -16q-6 13 -16.5 35t-38 82 t-47.5 113.5t-37 110t-16 93t24 41.5q42 10 89.5 33.5t73.5 42.5l27 19q65 61 168 117t186 87.5t160.5 58t85.5 30.5q20 12 104.5 57t165.5 96q40 26 142 99t165 106q59 29 103 29q24 0 41.5 -9.5t24.5 -23.5t11 -28t3 -24v-10q2 -5 3.5 -14t-3.5 -37.5t-22 -57.5 q0 -15 -14 -30q-4 -3 -11.5 -14t-10.5 -15q-66 -66 -125 -102q-190 -121 -236 -196l-5 -9q0 -45 23.5 -63t56.5 -18h37q4 4 11 7.5t11 7.5t11 7.5t11 7.5q30 19 63 45.5t51.5 42.5t24.5 21v15q15 44 15 73v15q3 3 10.5 7t10.5 7l14 14l16.5 16.5l13.5 13.5q4 8 15 19t15 18 h431l44 44v14q0 39 24.5 63.5t63.5 24.5h14l44 44v285l-44 44q0 -7 -14 -7q-39 0 -63.5 24.5t-24.5 63.5v14l-44 44h-1060l-44 -44v-14q0 -39 -25 -63.5t-63 -24.5q-7 7 -15 7l-44 -44v-278l44 -43h15q38 0 63 -25t25 -63v-15q-127 -74 -234 -110v359v66v387h395h841z M1666 1048q0 -97 -95 -168q15 73 7 102q-7 50 -43 78.5t-88.5 31t-116.5 -14.5q-25 -5 -66.5 -30t-123.5 -79q-15 58 -15 80q0 98 80 166t191 68q115 0 192.5 -67.5t77.5 -166.5z" />
<glyph unicode="&#x43b;" horiz-adv-x="1723" d="M1236 1484l-805 -176h-87l731 293q33 16 70.5 2.5t53.5 -46.5zM1331 1301h-680l622 139l153 44h22q29 0 56 -21t32 -52l29 -110h-234zM1726 781q27 -26 37 -65v-198q0 -36 -30 -66q-14 -14 -29 -14q-7 -8 -29 -8h-519q-39 0 -63.5 25t-24.5 63v95v30v29v44 q0 38 24.5 62.5t63.5 24.5h387h95h30v0q14 0 29 -7q14 0 29 -15zM1331 606v29q0 17 -13.5 30.5t-30.5 13.5h-22h-7q-22 0 -29 -7q-15 -15 -15 -37v-29q0 -17 13.5 -30.5t30.5 -13.5h29q17 0 30.5 13.5t13.5 30.5zM958 518q0 -66 49 -113.5t119 -47.5h556v-263 q0 -38 -28.5 -66.5t-66.5 -28.5h-1499q-39 0 -67 28.5t-28 66.5v929v102v8v22q0 14 14 29q11 16 31 26t42 10h59h14h205h110h812h219h30h29h22q38 0 66.5 -28t28.5 -67v-241h-15h-29h-29h-483h-22q-51 0 -95 -44t-44 -110v-66v-29v-29v-88zM1536 1037v-109h44v109h-44z M1236 1125v-44h197v44h-197zM256 109v43h-110h-36v0h-44q0 -20 13 -31.5t31 -11.5h36h110zM292 1081v44h-109h-73q-17 0 -30.5 -13.5t-13.5 -30.5h44v0h73h109zM841 1125v-44h190v44h-190zM644 109v43h-191v-43h191zM651 1081v44h-190v-44h190zM1031 109v43h-190v-43h190z M1536 306v-110h44v110h-44zM1229 152v-43h197v43h-197z" />
<glyph unicode="&#x43c;" horiz-adv-x="1408" d="M1396 153l51 -153h-1514l51 153h717l-95 213l175 -8l-58 -205h673zM1389 1616h-1383l-7 52l1404 7zM1389 234zM226 234h-227l36 1258l103 7v-204l1141 14v205l88 7l22 -1280h-227q-16 42 -27 68t-22 44.5t-18 27t-19 13.5t-20 6t-27 3.5t-35 5.5l-213 37v44h-7 q-39 -29 -95 -29t-95 29l7 -51l-197 -37q-18 -4 -38 -6.5t-29 -3t-21.5 -6t-18.5 -13.5t-16.5 -26.5t-20.5 -44.5t-24 -68zM343 636l-15 -14q0 -15 7 -15q96 -22 183 -37q-22 52 -22 147q10 -69 66 -139q41 -51 117 -51t117 51t66 139q0 -9 0.5 -36t0 -39t-4 -33t-11.5 -39 q36 7 76.5 16t62.5 15l22 6q8 0 8 15q0 7 -8 14l-11 1q-40 16 -40 175q0 118 -47 179.5t-114 61.5v-22q-10 46 -39 63.5t-78 17.5q-41 0 -79.5 -9.5t-75 -31t-63.5 -54.5t-43.5 -83.5t-16.5 -114.5q0 -168 -47 -182zM423 1390h-36l-37 65l-22 -29v-36h-29v146h29v-66l51 66 h37l-51 -59zM467 1390l51 153h29l52 -153h-37l-7 29h-51l-8 -29h-29zM547 1441l-22 51l-14 -51h36zM701 1514q-17 0 -23 -7.5t-6 -29.5v-14q0 -21 8.5 -32.5t20.5 -11.5t20.5 5.5t8.5 16.5h30q-11 -51 -59 -51q-28 0 -43 16.5t-15 48.5v22q0 33 15 49.5t43 16.5q48 0 59 -51 h-30q-11 22 -29 22zM869 1514q-16 0 -22.5 -10.5t-6.5 -33.5v-7q0 -21 8.5 -32.5t20.5 -11.5q30 0 30 22h29q-10 -51 -59 -51q-28 0 -43 16.5t-15 48.5v22q0 33 15 49.5t43 16.5q49 0 59 -51h-29q-11 22 -30 22zM964 1390zM964 1390l59 153h22l51 -153h-37l-7 29h-51l-7 -29 h-30zM1052 1441l-22 51l-14 -51h36zM599 761q-6 0 -18 15t-12 21t9.5 10.5t20.5 4.5q12 0 20.5 -6t8.5 -16q0 -11 -9 -20t-20 -9zM760 761q-11 0 -20.5 9t-9.5 20q0 10 9 16t20.5 6t20.5 -6t9 -16q0 -11 -9 -20t-20 -9z" />
<glyph unicode="&#x43d;" horiz-adv-x="1413" d="M712 496q22 0 80 15l-66 -103l59 -80l-66 -241q0 -6 -1 -7t-6 -1l-8 8l-65 241l58 80l-66 103q44 -15 73 -15h8zM741 -1l154 351v110l29 102q64 -42 276 -87l2 -1q58 -21 88 -58q13 -28 24.5 -53t20 -44t18.5 -46.5t15 -42t15.5 -49.5l15 -50t18 -62.5t19.5 -69.5h-695z M668 -1h-695q26 141 53.5 220.5t85.5 196.5q2 4 7.5 10.5t28.5 22.5t52 25q24 5 61 13.5t112 32t105 42.5l29 -95v-110zM990 1023q0 -7 -8 -15q24 -31 8 -95q-15 -44 -22 -51q-9 -45 -31.5 -92t-56 -88t-80 -68t-96.5 -30q-54 -4 -113 33.5t-103 104t-54 140.5 q-15 29 -22 51q-17 69 0 95l7 8q-13 53 -14 98.5t4 66t10 25.5q47 110 139.5 156.5t219.5 4.5q43 -15 66.5 -24t56 -28.5t52.5 -42.5q14 -15 25 -30t17 -31t10 -29.5t4 -31t0.5 -28t-3.5 -29t-5 -25t-6 -25t-5 -20.5zM609.5 972q10.5 0 20 12.5t9.5 23.5t-9 16.5t-21 5.5 t-20.5 -5.5t-8.5 -16.5t9.5 -23.5t20 -12.5zM792 972q12 0 23.5 13t5.5 23q0 11 -8.5 16.5t-20.5 5.5t-20.5 -5.5t-8.5 -16.5t9.5 -23.5t19.5 -12.5z" />
<glyph unicode="&#x43e;" horiz-adv-x="1659" d="M697 1585q0 99 75 133q63 29 130 -3q70 -33 79 -105q3 -21 0 -44q-7 -44 -30.5 -77t-55 -48.5t-66.5 -15.5t-64.5 16t-48.5 53.5t-19 90.5zM1045 742l28 -761q-3 -1 -8 -2.5t-19.5 -4t-28 -2.5t-30 3.5t-28.5 12t-21.5 25.5t-11.5 41q-4 45 -22.5 178t-34.5 243l-16 111 h-46q-46 -395 -64 -532q-5 -38 -23 -60t-40 -25.5t-43 -1.5t-36 8l-14 6l46 761q-7 5 -18 14t-38 37t-46 55.5t-31 64t-5 67.5l55 275q20 33 69.5 54t114.5 28l110 -156l110 156q108 -13 183 -73q27 -174 46 -275q15 -83 -109 -218zM1485 1539q0 -51 -19 -86.5t-48 -51 t-63.5 -15.5t-65 15t-52.5 46.5t-27 72.5q-13 91 56.5 137.5t144 13t74.5 -131.5zM1687 952q5 -25 -6.5 -59t-31 -64t-40.5 -55t-36 -40q-14 -14 -15 -11l28 -742q-6 -2 -15 -4.5t-33.5 -4.5t-43.5 2.5t-35.5 22t-19.5 48.5q-4 45 -22 175.5t-35 238.5l-16 108h-46 q-46 -385 -64 -513q-12 -82 -82 -82l-37 586l9 147q120 120 110 220q0 64 -55 366q9 0 23 5t23 5l110 -156l101 146q108 -13 183 -73q27 -174 46 -266zM532 512l-46 -540q-33 0 -54.5 15t-27.5 58q-4 45 -22.5 175.5t-34.5 238.5l-17 108h-45q-46 -385 -64 -513 q-6 -36 -23.5 -56.5t-39.5 -24.5t-43.5 -3t-35.5 6l-14 5l46 742q-7 5 -18 13.5t-38 35t-46 52.5t-31.5 62t-4.5 66q12 45 26 111.5t21 110.5l8 44q26 33 75.5 54t107.5 29l101 -147l110 147q18 0 55 -19q-55 -275 -64 -348q-20 -90 110 -220zM450 1520q-5 -41 -27 -72.5 t-52.5 -46.5t-65 -15t-63.5 15.5t-48 51t-19 86.5q0 94 74.5 125.5t144 -13t56.5 -131.5z" />
<glyph unicode="&#x43f;" horiz-adv-x="1109" d="M136 1062h838v-1062h-180v913h-478v-913h-180v1062z" />
<glyph unicode="&#x440;" d="M135 -407v1469h164v-138q58 81 131 121.5t177 40.5q136 0 240 -70t157 -197.5t53 -279.5q0 -163 -58.5 -293.5t-170 -200t-234.5 -69.5q-90 0 -161.5 38t-117.5 96v-517h-180zM298 525q0 -205 83 -303t201 -98q120 0 205.5 101.5t85.5 314.5q0 203 -83.5 304t-199.5 101 q-115 0 -203.5 -107.5t-88.5 -312.5z" />
<glyph unicode="&#x441;" horiz-adv-x="3847" d="M2337 1284q4 4 10 12.5t27.5 30t45 39t61 35t76 23.5t89.5 -1.5t103 -33.5q232 -116 348 -169l-390 -211zM3350 851q-4 -55 -14.5 -229.5t-16.5 -245.5q-5 -49 -24 -92.5t-46.5 -72.5t-59 -53t-63 -38t-57 -23t-41.5 -13l-15 -3l-53 569l-158 -84l-317 -169l-337 285 q1 4 4.5 9.5t16 22t27 29.5t38.5 27t50.5 20.5t62.5 4t75 -17.5q21 -11 105 -32q148 101 411.5 268.5t401.5 248.5q75 44 159.5 77.5t158 51t129 12.5t70.5 -35q26 -41 -10.5 -116.5t-120 -157t-186.5 -138.5q-9 -9 -22.5 -18.5t-34.5 -20.5t-37.5 -19.5t-47 -23 t-48.5 -23.5zM565 1579q5 1 15 2.5t39.5 3t57 -1t62 -12t62 -26.5t50 -49t30.5 -75q6 -24 25.5 -96.5t37.5 -145.5t32 -138l-380 53zM1082 471q-19 5 -46.5 16t-69 28.5t-74.5 29.5q-148 -116 -464 -338q-37 -28 -76.5 -38.5t-73.5 -4.5t-66.5 19t-58 32t-45 36t-29.5 29 l-10 12l422 411q-36 12 -93.5 39.5t-75.5 34.5l-306 116l-21 412q4 1 10.5 3.5t26.5 6.5t39.5 5t46 -4t48.5 -17t44.5 -37.5t37.5 -62.5q21 -63 42 -105q166 -36 458.5 -128t470.5 -157q111 -42 206 -103t147.5 -125t36.5 -110q-36 -69 -196 -67t-331 67zM1145 249 q-74 8 -103.5 52t-12.5 96l243 -53q-9 -41 -41.5 -68t-85.5 -27zM1103 -194l-21 211l791 -19l792 19l-11 -211l-780 20z" />
<glyph unicode="&#x442;" horiz-adv-x="938" d="M38 1062h863v-149h-342v-913h-179v913h-342v149z" />
<glyph unicode="&#x443;" horiz-adv-x="1024" d="M127 -409l-20 169q59 -16 103 -16q60 0 96 20t59 56q17 27 55 134q5 15 16 44l-403 1064h194l221 -615q43 -117 77 -246q31 124 74 242l227 619h180l-404 -1080q-65 -175 -101 -241q-48 -89 -110 -130.5t-148 -41.5q-52 0 -116 22z" />
<glyph unicode="&#x444;" horiz-adv-x="1685" d="M753 1466h180v-507q56 64 123 95.5t144 31.5q189 0 299.5 -157.5t110.5 -396.5q0 -249 -119 -402.5t-296 -153.5q-58 0 -118 18t-144 98v-499h-180v499q-54 -58 -119.5 -87t-141.5 -29q-167 0 -292 146.5t-125 419.5q0 231 113 387.5t304 156.5q80 0 145 -31.5t116 -95.5 v507zM932 527q0 -240 66 -322.5t165 -82.5q110 0 187.5 101.5t77.5 315.5q0 202 -71.5 301t-183.5 99q-120 0 -180.5 -103t-60.5 -309zM258 547q0 -225 75.5 -324t187.5 -99q117 0 175 98.5t58 295.5q0 210 -61 315t-184 105q-111 0 -181 -102.5t-70 -288.5z" />
<glyph unicode="&#x445;" horiz-adv-x="1024" d="M15 0l388 552l-359 510h225l163 -249q46 -71 74 -119q44 66 81 117l179 251h215l-367 -500l395 -562h-221l-218 330l-58 89l-279 -419h-218z" />
<glyph unicode="&#x446;" horiz-adv-x="1173" d="M138 1062h180v-914h498v914h180v-914h116v-449h-148v301h-826v1062z" />
<glyph unicode="&#x447;" horiz-adv-x="1067" d="M69 1062h180v-201q0 -130 15.5 -188.5t74.5 -102t148 -43.5q102 0 264 54v481h180v-1062h-180v428q-166 -52 -310 -52q-121 0 -213.5 61.5t-125.5 150.5t-33 196v278z" />
<glyph unicode="&#x448;" horiz-adv-x="1643" d="M141 1062h180v-913h410v913h180v-913h411v913h179v-1062h-1360v1062z" />
<glyph unicode="&#x449;" horiz-adv-x="1685" d="M141 1062h180v-914h410v914h180v-914h411v914h179v-914h119v-449h-149v301h-1330v1062z" />
<glyph unicode="&#x44a;" horiz-adv-x="1280" d="M40 1062h475v-415h229q243 0 353 -94.5t110 -231.5q0 -142 -106.5 -231.5t-314.5 -89.5h-451v913h-295v149zM515 146h189q172 0 244 41.5t72 133.5q0 84 -61.5 130t-230.5 46h-213v-351z" />
<glyph unicode="&#x44b;" horiz-adv-x="1472" d="M1146 1062h180v-1062h-180v1062zM139 1062h180v-415h228q223 0 343.5 -86.5t120.5 -238.5q0 -133 -100.5 -227.5t-321.5 -94.5h-450v1062zM319 148h189q171 0 244 42t73 131q0 69 -54 123t-239 54h-213v-350z" />
<glyph unicode="&#x44c;" horiz-adv-x="1067" d="M132 1062h180v-415h228q223 0 343.5 -86.5t120.5 -238.5q0 -133 -100.5 -227.5t-321.5 -94.5h-450v1062zM312 148h189q171 0 244 42t73 131q0 69 -54 123t-239 54h-213v-350z" />
<glyph unicode="&#x44d;" horiz-adv-x="1045" d="M404 618v-148h375q-17 -173 -89.5 -259.5t-201.5 -86.5q-228 0 -269 264l-176 -23q28 -175 145.5 -282t307.5 -107q226 -13 350 143.5t118 411.5q0 259 -129 407t-352 148q-178 0 -288 -94.5t-134 -243.5l175 -28q44 217 253 217q120 0 196.5 -88.5t93.5 -230.5h-375z " />
<glyph unicode="&#x44e;" horiz-adv-x="1536" d="M137 1062h180v-444h218q24 228 142.5 348t307.5 120q161 0 254 -65t153.5 -179t60.5 -307q0 -275 -125 -417t-339 -142q-199 0 -319 132t-135 362h-218v-470h-180v1062zM995 933q-132 0 -205.5 -101.5t-73.5 -284.5q0 -219 74 -321t198 -102q123 0 201.5 94.5t78.5 304.5 q0 205 -68 307.5t-205 102.5z" />
<glyph unicode="&#x44f;" horiz-adv-x="1109" d="M971 1062v-1062h-179v414h-104q-95 0 -141.5 -24.5t-135.5 -157.5l-157 -232h-223l194 286q89 131 177 148q-154 21 -228.5 111t-74.5 207q0 138 97.5 224t282.5 86h492zM792 913h-256q-161 0 -207.5 -50t-46.5 -117q0 -95 68.5 -139.5t242.5 -44.5h199v351z" />
<glyph unicode="&#x451;" horiz-adv-x="1761" d="M901 -206q-200 0 -366 61.5t-271.5 165.5t-178 238.5t-86.5 283.5t3.5 297.5t92.5 283.5t180 238.5t265 165t350 61.5q187 -2 344.5 -64.5t259 -166.5t172.5 -239t86.5 -283t1 -296.5t-84.5 -282.5t-170.5 -237.5t-256 -164.5t-341.5 -61zM879 1467q-111 0 -167 -11 l23 -122l-255 -188l-222 11l-66 -100l44 -443l144 -177l-144 -200q227 -321 665 -321q132 0 246.5 37.5t198.5 101.5t147 151t100 184t50 202l-111 100l-155 55l-22 -33l55 -67l45 -11l22 -66l-144 -78l-100 189l-33 -78l78 -166l88 -22l-155 -89l-199 -277l-167 -11 l-33 166l22 244l-188 55l-66 155l33 145l177 77l177 -100l89 34l133 -34l33 178l-177 55v-111h-111l-11 122l-133 -33l11 100l-55 33l88 77l144 -77l45 100l110 44l78 -33l78 11l33 88q-190 133 -443 133zM342 1270v205h188v-205h-188zM715 1270v205h188v-205h-188z" />
<glyph unicode="&#x452;" d="M135 1217h-134l-1 119h135v130h179v-130h343v-119h-343v-278q61 74 141.5 110.5t179.5 36.5q175 0 270 -92t95 -321v-731q0 -238 -76 -305.5t-190 -67.5q-79 0 -142 19l34 153q52 -14 84 -14q47 0 78.5 31.5t31.5 187.5v727q0 129 -56.5 193.5t-169.5 64.5 q-99 0 -189.5 -69t-90.5 -281v-581h-179v1217z" />
<glyph unicode="&#x453;" horiz-adv-x="747" d="M136 1062h611v-149h-431v-913h-180v1062zM342 1194l133 280h236l-220 -280h-149z" />
<glyph unicode="&#x454;" horiz-adv-x="1045" d="M641 618v-148h-375q17 -173 89.5 -259.5t201.5 -86.5q228 0 269 264l176 -23q-28 -175 -145.5 -282t-307.5 -107q-226 -13 -350 143.5t-118 411.5q0 259 129 407t352 148q178 0 288 -94.5t134 -243.5l-175 -28q-44 217 -253 217q-120 0 -196.5 -88.5t-93.5 -230.5h375z " />
<glyph unicode="&#x455;" horiz-adv-x="1532" />
<glyph unicode="&#x456;" horiz-adv-x="1309" d="M714 1283l422 -315l-681 -856q-5 -6 -15 -12t-18 -9l-8 -3l-424 -173l48 451q2 33 12 46zM122 83l262 97l-246 173zM790 1382l101 136q15 20 42 24q26 4 47 -11l328 -243q20 -15 24 -41q4 -25 -12 -46l-110 -140z" />
<glyph unicode="&#x457;" horiz-adv-x="569" d="M198 0v1062h180v-1062h-180zM9 1270v205h188v-205h-188zM382 1270v205h188v-205h-188z" />
<glyph unicode="&#x458;" horiz-adv-x="455" d="M134 1257v209h180v-209h-180zM-94 -412l34 153q54 -14 85 -14q55 0 82 36.5t27 182.5v1116h180v-1120q0 -196 -51 -273q-65 -100 -216 -100q-73 0 -141 19z" />
<glyph unicode="&#x459;" horiz-adv-x="1856" d="M1092 1062v-415h229q220 0 341.5 -86t121.5 -239q0 -128 -98 -225t-324 -97h-450v913h-499v-529q0 -175 -19.5 -247t-75 -107.5t-159.5 -35.5q-29 0 -140 6v147q71 -10 111 -10q63 0 83 39t20 186v700h859zM1092 148h189q172 0 245 41.5t73 131.5q0 70 -53.5 123.5 t-239.5 53.5h-214v-350z" />
<glyph unicode="&#x45a;" horiz-adv-x="1664" d="M901 620h229q222 0 342.5 -83t120.5 -228q0 -129 -101 -219t-321 -90h-450v471h-410v-471h-180v1062h180v-442h410v442h180v-442zM901 141h189q173 0 245 39.5t72 123.5q0 66 -53.5 116.5t-239.5 50.5h-213v-330z" />
<glyph unicode="&#x45b;" d="M135 1336v130h179v-130h343v-119h-343v-278q61 74 141.5 110.5t179.5 36.5q175 0 270 -92t95 -321v-673h-180v673q0 129 -56.5 193.5t-169.5 64.5q-99 0 -189.5 -69t-90.5 -281v-581h-179v1217h-134l-1 119h135z" />
<glyph unicode="&#x45c;" horiz-adv-x="2214" d="M1988 1048q0 -38 -24.5 -63t-63 -25t-63.5 25t-25 63t25 63t63.5 25t63 -25t24.5 -63zM979 1048q0 -38 -25 -63t-63.5 -25t-63 25t-24.5 63t24.5 63t63 25t63.5 -25t25 -63zM1820 1472h387v-395v-66v-387h-395h-204v-66q0 -42 -3.5 -74.5t-14 -65.5t-19.5 -55t-32.5 -58 t-40 -58.5t-53.5 -71.5q-13 -18 -20 -27q-28 -37 -50.5 -80.5t-33.5 -70.5t-30 -52t-47 -38q-59 -29 -117 -29h-22h-29h-22h-30h-36h-22h-15q-77 0 -130.5 -0.5t-108 -3.5t-76.5 -4t-94 -6.5t-103 -7.5q-97 -3 -190.5 -21.5t-137.5 -35.5l-45 -16q-6 13 -16.5 35t-38 82 t-47.5 113.5t-37 110t-16 93t24 41.5q42 10 89.5 33.5t73.5 42.5l27 19q65 61 168 117t186 87.5t160.5 58t85.5 30.5q20 12 104.5 57t165.5 96q40 26 142 99t165 106q59 29 103 29q24 0 41.5 -9.5t24.5 -23.5t11 -28t3 -24v-10q2 -5 3.5 -14t-3.5 -37.5t-22 -57.5 q0 -15 -14 -30q-4 -3 -11.5 -14t-10.5 -15q-66 -66 -125 -102q-190 -121 -236 -196l-5 -9q0 -45 23.5 -63t56.5 -18h37q4 4 11 7.5t11 7.5t11 7.5t11 7.5q30 19 63 45.5t51.5 42.5t24.5 21v15q15 44 15 73v15q3 3 10.5 7t10.5 7l14 14l16.5 16.5l13.5 13.5q4 8 15 19t15 18 h431l44 44v14q0 39 24.5 63.5t63.5 24.5h14l44 44v285l-44 44q0 -7 -14 -7q-39 0 -63.5 24.5t-24.5 63.5v14l-44 44h-1060l-44 -44v-14q0 -39 -25 -63.5t-63 -24.5q-7 7 -15 7l-44 -44v-278l44 -43h15q38 0 63 -25t25 -63v-15q-127 -74 -234 -110v359v66v387h395h841z M1666 1048q0 -97 -95 -168q15 73 7 102q-7 50 -43 78.5t-88.5 31t-116.5 -14.5q-25 -5 -66.5 -30t-123.5 -79q-15 58 -15 80q0 98 80 166t191 68q115 0 192.5 -67.5t77.5 -166.5zM42 1194l133 280h236l-220 -280h-149z" />
<glyph unicode="&#x45e;" horiz-adv-x="1024" d="M127 -409l-20 169q59 -16 103 -16q60 0 96 20t59 56q17 27 55 134q5 15 16 44l-403 1064h194l221 -615q43 -117 77 -246q31 124 74 242l227 619h180l-404 -1080q-65 -175 -101 -241q-48 -89 -110 -130.5t-148 -41.5q-52 0 -116 22zM697 1464h123q-15 -125 -91.5 -192 t-203.5 -67q-128 0 -204.5 66.5t-91.5 192.5h123q14 -68 55.5 -101.5t111.5 -33.5q81 0 122.5 32.5t55.5 102.5z" />
<glyph unicode="&#x45f;" horiz-adv-x="1131" d="M640 0v-302h-149v302h-355v1062h180v-914h499v914h180v-1062h-355z" />
<glyph unicode="&#x490;" horiz-adv-x="1001" d="M767 1466v406h173v-579h-585v-1293h-194v1466h606z" />
<glyph unicode="&#x491;" horiz-adv-x="842" d="M631 1062v406h149v-555h-464v-913h-180v1062h495z" />
<glyph unicode="&#x492;" horiz-adv-x="1109" d="M1109 1293h-754v-494h401v-132h-401v-667h-194v667h-164v132h164v667h948v-173z" />
<glyph unicode="&#x493;" horiz-adv-x="747" d="M747 913h-431v-267h231v-132h-231v-514h-180v514h-124v132h124v416h611v-149z" />
<glyph unicode="&#x496;" horiz-adv-x="1891" d="M1883 -407h-172v407h-69l-244 398q-93 152 -139 198q-90 90 -214 90v-686h-199v686q-96 0 -169 -50q-66 -45 -172 -218l1 2q-11 -18 -258 -420h-241l302 488q138 223 280 262q-100 41 -158 125q-36 51 -90 187q-63 157 -109 198t-133 39l-78 -2v168q11 2 112 2 q184 0 277 -138q41 -60 103 -206q77 -180 113 -220q68 -77 220 -79v642h199v-642q150 0 220 79q37 42 113 220q62 145 101 204q93 140 272 140q95 0 118 -2v-168q-13 0 -38.5 1t-38.5 1q-103 0 -160 -71q-32 -38 -83 -166q-54 -135 -89 -186q-58 -83 -158 -126 q141 -39 279 -262l195 -315h107v-580z" />
<glyph unicode="&#x497;" horiz-adv-x="1370" d="M1360 -301h-148v301h-34l-193 329q-48 81 -82 113q-53 49 -126 49v-491h-184v491q-74 0 -126 -48q-32 -31 -81 -114l-193 -329h-198l197 329q111 185 229 216q-90 41 -135 117q-17 28 -73 171q-20 51 -44 66t-80 15q-13 0 -53 -1v149h25q106 0 147 -12q57 -17 103 -92 q19 -32 60 -130q57 -136 74 -159q49 -66 148 -66v459h184v-459q100 0 148 65q18 24 74.5 159t93.5 174q58 61 176 61h66v-149l-49 1q-76 2 -106 -39q-11 -14 -50 -113q-37 -95 -64 -131q-38 -50 -116 -86q117 -31 228 -216l109 -181h73v-449z" />
<glyph unicode="&#x49a;" horiz-adv-x="1193" d="M1186 -407h-172v407h-69l-245 398q-92 150 -136 196q-90 92 -209 92v-686h-194v1466h194v-642q144 0 214 82q37 43 111 217q62 145 101 204q93 140 273 140q112 0 118 -2v-168q-13 0 -39 1t-39 1q-103 0 -160 -71q-32 -39 -83 -166q-55 -139 -89 -188q-57 -83 -158 -124 q142 -39 280 -262l195 -315h107v-580z" />
<glyph unicode="&#x49b;" horiz-adv-x="896" d="M886 -301h-148v301h-24l-192 329q-47 81 -82 113q-53 49 -126 49v-491h-180v1062h180v-459q100 0 148 65q16 21 74 160q40 96 60 128q44 73 102 92q43 14 138 14h36v-149l-50 1q-75 1 -106 -39q-10 -13 -49 -113q-37 -94 -65 -131q-38 -50 -115 -86q117 -31 228 -216 l109 -181h62v-449z" />
<glyph unicode="&#x49c;" horiz-adv-x="1193" d="M1186 0h-241l-245 398q-58 95 -105 155v-314h-120v423q-51 24 -120 24v-686h-194v1466h194v-642q71 0 120 15v403h120v-294q38 65 85 175q55 130 81 172q54 88 132 132q72 40 161 40q112 0 118 -2v-168q-13 0 -39 1t-39 1q-103 0 -160 -71q-32 -39 -83 -166 q-55 -139 -89 -188q-57 -83 -158 -124q142 -39 280 -262z" />
<glyph unicode="&#x49d;" horiz-adv-x="896" d="M912 0h-198l-192 329q-14 24 -31 49v-214h-99v311q-35 16 -78 16v-491h-180v1062h180v-459q45 0 78 10v324h99v-209q21 43 45 100q40 96 60 128q44 73 102 92q43 14 138 14h36v-149l-50 1q-75 1 -106 -39q-10 -13 -49 -113q-41 -104 -75 -144q-41 -48 -95 -73 q106 -28 218 -216z" />
<glyph unicode="&#x4a2;" horiz-adv-x="1479" d="M1448 -407h-172v407h-156v691h-762v-691h-194v1466h194v-602h762v602h194v-1293h134v-580z" />
<glyph unicode="&#x4a3;" horiz-adv-x="1131" d="M1111 -301h-148v301h-148v471h-499v-471h-180v1062h180v-442h499v442h180v-914h116v-449z" />
<glyph unicode="&#x4ae;" d="M1133 1466l-476 -840v-626h-180v626l-480 840h200l290 -516q48 -85 76 -154q25 57 82 163l274 507h214z" />
<glyph unicode="&#x4af;" horiz-adv-x="1024" d="M1005 1062l-402 -1062v-407h-180v407l-403 1062h194l221 -615q46 -127 77 -246q29 109 78 246l221 615h194z" />
<glyph unicode="&#x4b0;" d="M1133 1466l-405 -711h341v-148h-412v-607h-180v607h-415v148h341l-406 711h200l290 -516q48 -85 76 -154q25 57 82 163l274 507h214z" />
<glyph unicode="&#x4b1;" horiz-adv-x="1024" d="M1005 1062l-402 -1062h322v-132h-322v-275h-180v275h-323v132h323l-403 1062h194l221 -615q46 -127 77 -246q29 109 78 246l221 615h194z" />
<glyph unicode="&#x4b2;" horiz-adv-x="1366" d="M1353 -407h-172v407h-68l-369 523q-25 36 -64 98q-52 -86 -70 -110l-368 -511h-233l567 764l-500 702h231l266 -376q84 -119 118 -180q45 73 116 167l295 389h211l-515 -691l430 -602h125v-580z" />
<glyph unicode="&#x4b3;" horiz-adv-x="1024" d="M1009 -301h-148v301h-73l-276 419l-279 -419h-218l388 552l-359 510h225l163 -249q42 -64 74 -119q35 52 81 117l179 251h215l-367 -500l292 -414h103v-449z" />
<glyph unicode="&#x4b8;" horiz-adv-x="1365" d="M1204 0h-194v591q-162 -60 -300 -83v-279h-120v266q-22 -1 -37 -1q-138 0 -254 62q-128 70 -172 191q-40 111 -40 288v431h194v-413q0 -239 88.5 -315.5t209.5 -75.5h11v450h120v-441q145 20 300 82v713h194v-1466z" />
<glyph unicode="&#x4b9;" horiz-adv-x="1067" d="M931 0h-180v428q-110 -34 -210 -46v-214h-99v208h-21q-89 0 -183 55q-100 59 -136 157q-33 89 -33 196v278h180v-201q0 -116 9 -159q18 -84 81 -131q44 -33 103 -41v277h99v-277q87 10 210 51v481h180v-1062z" />
<glyph unicode="&#x4ba;" horiz-adv-x="1365" d="M1278 0h-194v413q0 184 -56 276q-71 115 -242 115q-205 0 -431 -91v-713h-194v1466h194v-591q261 97 457 97q139 0 254 -62q129 -69 173 -191q39 -109 39 -288v-431z" />
<glyph unicode="&#x4bb;" horiz-adv-x="1213" d="M909 -89q-18 -86 -85 -116.5t-178 -6.5q-72 15 -253.5 60.5t-250.5 60.5q-99 21 -134.5 84t-16.5 154q21 103 59 267.5t79.5 339t77 321t66 270t31.5 127.5q23 98 72.5 136.5t131.5 21.5q355 -77 586 -132q173 -41 127 -249q-3 -15 -67.5 -281.5t-139 -583.5t-105.5 -473 zM436 -68q31 -7 56.5 7.5t36 40.5t10.5 54.5t-19 52.5t-52 31q-56 12 -89.5 -29t-19 -92t76.5 -65zM387 1291l-229 -1004l658 -151l261 1001z" />
<glyph unicode="&#x4e8;" horiz-adv-x="1593" d="M1498 731q0 -327 -185 -536q-194 -220 -516 -220q-207 0 -374 103q-174 106 -253 292q-74 175 -74 344q0 340 178 552q191 226 524 226q325 0 517 -221q183 -210 183 -540zM1294 819q-19 219 -136 350q-140 156 -359 156q-215 0 -359 -147q-118 -120 -139 -359h993z M1294 647h-996q15 -207 134 -346q136 -160 364 -160q219 0 353 147q126 136 145 359z" />
<glyph unicode="&#x4e9;" d="M1063 546q0 -372 -240 -505q-117 -65 -257 -65q-242 0 -375 159q-123 148 -123 396q0 295 164 437q137 118 334 118q235 0 369 -155q128 -147 128 -385zM872 633q-17 129 -83 203q-89 101 -223 101q-135 0 -224 -101q-66 -74 -83 -203h613zM877 485h-623q8 -154 81 -251 q84 -110 231 -110t230 111q72 96 81 250z" />
<glyph unicode="&#x2013;" d="M-4 458v145h1139v-145h-1139z" />
<glyph unicode="&#x2014;" horiz-adv-x="2048" d="M0 458v145h2048v-145h-2048z" />
<glyph unicode="&#x2018;" horiz-adv-x="455" d="M321 1220v-209h-193v165q0 134 32 194q42 80 133 121l44 -70q-55 -23 -81 -68.5t-29 -132.5h94z" />
<glyph unicode="&#x2019;" horiz-adv-x="455" d="M124 1272v209h193v-165q0 -134 -31 -193q-43 -81 -134 -122l-44 71q54 22 80.5 69.5t29.5 130.5h-94z" />
<glyph unicode="&#x201a;" horiz-adv-x="455" d="M124 0v209h193v-165q0 -134 -31 -193q-43 -81 -134 -122l-44 71q54 22 80.5 69.5t29.5 130.5h-94z" />
<glyph unicode="&#x201c;" horiz-adv-x="682" d="M276 1220v-209h-193v165q0 134 32 194q42 80 133 121l44 -70q-55 -23 -81 -68.5t-29 -132.5h94zM586 1220v-209h-193v165q0 134 32 194q42 80 133 121l44 -70q-55 -23 -81 -68.5t-29 -132.5h94z" />
<glyph unicode="&#x201d;" horiz-adv-x="682" d="M87 1272v209h193v-165q0 -134 -31 -193q-43 -81 -134 -122l-44 71q54 22 80.5 69.5t29.5 130.5h-94zM397 1272v209h193v-165q0 -134 -31 -193q-43 -81 -134 -122l-44 71q54 22 80.5 69.5t29.5 130.5h-94z" />
<glyph unicode="&#x201e;" horiz-adv-x="682" d="M87 0v209h193v-165q0 -134 -31 -193q-43 -81 -134 -122l-44 71q54 22 80.5 69.5t29.5 130.5h-94zM397 0v209h193v-165q0 -134 -31 -193q-43 -81 -134 -122l-44 71q54 22 80.5 69.5t29.5 130.5h-94z" />
<glyph unicode="&#x2020;" d="M472 -346v1212h-399v160h399v406h180v-406h402v-160h-402v-1212h-180z" />
<glyph unicode="&#x2021;" d="M475 -346v370h-402v161h402v725h-402v161h402v375h180v-375h403v-161h-403v-725h403v-161h-403v-370h-180z" />
<glyph unicode="&#x2022;" horiz-adv-x="717" d="M109 718q0 105 74.5 179t178.5 74q105 0 179.5 -74t74.5 -179t-74.5 -179.5t-179.5 -74.5q-104 0 -178.5 74.5t-74.5 179.5z" />
<glyph unicode="&#x2026;" horiz-adv-x="2048" d="M239 0v205h205v-205h-205zM922 0v205h205v-205h-205zM1604 0v205h206v-205h-206z" />
<glyph unicode="&#x2039;" horiz-adv-x="682" d="M291 527l265 -455h-149l-315 455l315 457h149z" />
<glyph unicode="&#x203a;" horiz-adv-x="682" d="M357 530l-265 454h149l304 -448l-304 -464h-149z" />
<glyph unicode="&#x20ac;" d="M790 1325q-168 0 -282 -81q-68 -48 -123 -136q-56 -91 -66 -173h682l-27 -134h-671q-1 -21 -1 -40q0 -77 1 -92h644l-28 -134h-595q42 -229 202 -325q115 -69 249 -69q187 0 292 98v-206q-125 -58 -276 -58q-452 0 -611 376q-32 76 -55 184h-153l28 134h105q-3 42 -3 91 q0 20 1 41h-131l28 134h116q62 326 323 468q161 88 355 88q186 0 313 -81l-40 -186q-122 101 -277 101z" />
<glyph unicode="&#x2122;" horiz-adv-x="2048" d="M489 651v694h-264v121h666v-121h-266v-694h-136zM982 651v815h200l206 -651l199 651h196v-815h-124v684l-210 -684h-123l-219 694v-694h-125z" />
<glyph unicode="&#x25ca;" horiz-adv-x="1012" d="M549 1422l418 -713l-418 -709h-111l-391 709l391 713h111zM495 1325l-340 -616l340 -615l359 615z" />
<glyph unicode="&#x25fc;" horiz-adv-x="1060" d="M0 1060h1060v-1060h-1060v1060z" />
<glyph unicode="&#xfb01;" horiz-adv-x="1024" d="M183 0v923h-160v139h160v103q0 158 68 242t215 84q99 0 183 -23l-28 -152q-53 9 -97 9q-93 0 -127 -37t-34 -157v-69h206v-139h-206v-923h-180zM705 1259v207h180v-207h-180zM705 0v1062h180v-1062h-180z" />
<glyph unicode="&#xfb02;" horiz-adv-x="1024" d="M183 0v923h-160v139h160v103q0 158 68 242t215 84q99 0 183 -23l-28 -152q-53 9 -97 9q-93 0 -127 -37t-34 -157v-69h206v-139h-206v-923h-180zM703 0v1466h180v-1466h-180z" />
</font>
</defs>
</svg>
